img image001 image001 image001 image001 image001 image001 image001 image001 image001 image001 image001 image001 image001 image001 image001

Planets Sun Sun Sun
Статистика раздачи
Автор: PriZraK | Размер: 2.22 ГБ | Добавлен: 27 окт 2016
Раздают: 12    Качают: 12
Скачать торрент
Скачать торрент
Описание торрента

СообщениеДобавлено: 27 окт 2016 

Название: Радиоволна
Оригинальное название: Frequency
Год выхода: 2016
Жанр: драма, детектив, фантастика
Режиссер: Брэд Андерсон, Джон Т. Кречмер
В ролях:
Пейтон Лист. Дэниэл Бонжур. Ленни Джейкобсон. Девин Келли. Мехи Файфер. Райли Смит. Гаретт Баллок. Винсент Дэнгерфилд. Татьяна Форрест. Эмми О`Лири. Шон О. Робертс. Энтони Руйвивар. Дженнифер Спенс. Бритни Уолдрон. Бен Уилкинсон. Джулия Бенсон. Джим Элиасон и др. др.
Описание сериала:
Главная героиня мистического триллера «Frequency» - женщина-детектив. Трудностей и заморочек ей хватает и по работе. Но её жизнь ещё больше осложняется и запутывается, когда она обнаруживает, что может общаться с отцом посредством обычного радио. Вот только он умер ещё в 1996-м году, а сейчас на дворе 2016-й. Они вступают в новые необычные отношения и начинают совместно работать над расследованием нераскрытого убийства. Связь с прошлым не проходит без последствий – «эффект бабочки» начинает вносить хаос в современность.
Страна: США
Продолжительность: ~00:45:00
Перевод: Любительский (двухголосый) NEON Studio
Субтитры: Отсутствуют

Файл
Формат: MKV
Качество: WEB-DLRip (720p)
Видео: MPEG-4 AVC, ~ 3000 Кбит/с, 1280x720
Аудио: 48 kHz, AC3 Dolby Digital, 2/0 (L,R) ch, ~192 kbps
Релиз группа:

Формат : Matroska
Версия формата : Version 4 / Version 2
Размер файла : 1,27 Гбайт
Продолжительность : 42 м.
Общий поток : 4280 Кбит/сек
Дата кодирования : UTC 2016-10-25 14:06:24
Программа кодирования : mkvmerge v6.0.0 ('Coming Up For Air') built on Jan 20 2013 09:52:00
Библиотека кодирования : libebml v1.3.0 + libmatroska v1.4.0
Обложка : Yes
Attachments : small_cover.jpg / cover.jpg / cover_land.jpg / small_cover_land.jpg
Видео
Идентификатор : 1
Формат : AVC
Формат/Информация : Advanced Video Codec
Профиль формата : High@L3.1
Параметр CABAC формата : Нет
Параметр ReFrames формата : 2 кадра
Идентификатор кодека : V_MPEG4/ISO/AVC
Продолжительность : 42 м.
Битрейт : 4003 Кбит/сек
Ширина : 1280 пикселей
Высота : 718 пикселей
Соотношение сторон : 16:9
Режим частоты кадров : Постоянный
Частота кадров : 23,976 кадра/сек
Цветовое пространство : YUV
Субдискретизация насыщенности : 4:2:0
Битовая глубина : 8 бит
Тип развёртки : Прогрессивная
Бит/(Пиксели*Кадры) : 0.182
Размер потока : 1,19 Гбайт (94%)
Язык : English
Default : Да
Forced : Нет
Цветовой диапазон : Limited
Основные цвета : BT.709
Характеристики трансфера : BT.709
Коэффициенты матрицы : BT.709
Аудио
Идентификатор : 2
Формат : AC-3
Формат/Информация : Audio Coding 3
Расширение режима : CM (complete main)
Параметр Endianness формата : Big
Идентификатор кодека : A_AC3
Продолжительность : 42 м.
Вид битрейта : Постоянный
Битрейт : 192 Кбит/сек
Каналы : 2 канала
Расположение каналов : Front: L R
Частота : 48,0 КГц
Частота кадров : 31,250 кадров/сек (1536 spf)
Метод сжатия : С потерями
Размер потока : 58,3 Мбайт (4%)
Default : Да
Forced : Нет
Внимание! Раздача ведётся путём добавления новых серий; при каждом добавлении создаётся новый торрент. Чтобы начать докачку новой серии, пользователям необходимо сделать следующее:
(1) остановить скачивание,
(2) удалить старый торрент у себя из клиента (старые серии удалять не надо),
(3) скачать новый торрент и запустить его у себя в клиенте вместо старого, при этом указать клиенту путь в старую папку куда и должно происходить скачивание новых серий.
Ваш клиент при этом должен произвести хеширование (проверку) старой папки (если не производит сам - помогите ему сделать это), и будет докачивать только те серии которых у вас ещё нет. Старые серии при этом не удаляются, а продолжают раздаваться!
Eсли вы уже удалили старые серии, то предотвратить повторную закачку старых серий можно, отжав галочку в соответсвующих местах при запуске нового торрента. По возможности, желательно не удалять старые серии как можно дольше чтобы релизёр не столько продолжал раздавать старые серии, а смог сконцентрироваться на новых.



   Похожие торренты   Торрент   Размер 
В этой теме нет новых непрочитанных сообщений. Радиоволна / Frequency [01x01-08 из 10] (2016) WEB-DLRip 720р | NEON Studio

8 | 13

7.85 ГБ

В этой теме нет новых непрочитанных сообщений. Радиоволна / Frequency [01x01-07 из 10] (2016) WEB-DLRip 720р | NEON Studio

8 | 25

6.91 ГБ

В этой теме нет новых непрочитанных сообщений. Радиоволна / Frequency [01x01-08 из 10] (2016) WEB-DLRip | NEON Studio

9 | 22

3.98 ГБ

В этой теме нет новых непрочитанных сообщений. Радиоволна / Frequency [01x01-02 из 10] (2016) WEB-DLRip | NEON Studio

10 | 10

1004.67 МБ

В этой теме нет новых непрочитанных сообщений. Радиоволна / Frequency [01x01-07 из 10] (2016) WEB-DLRip | NEON Studio

21 | 42

3.48 ГБ

В этой теме нет новых непрочитанных сообщений. Радиоволна / Frequency [01х01-06 из 10] (2016) WEB-DLRip 720р | Sunshine Studio

6 | 28

5.33 ГБ

В этой теме нет новых непрочитанных сообщений. Радиоволна / Frequency [01х01-06 из 10] (2016) WEB-DLRip | Sunshine Studio

67 | 214

2.96 ГБ




Вы не можете начинать темы
Вы не можете отвечать на сообщения
Вы не можете редактировать свои сообщения
Вы не можете удалять свои сообщения
Вы не можете добавлять вложения

Перейти:  
Для Мосгорсуда, Роскомнадзора и рекламодателей: mosgorsud-torrent[собачка]yandex.ru
 Вход
ppkBB3cker v.2 © 2008-2014 @ PPK
[ Time : 0.036s | 15 Queries | GZIP : Off ]

Торрент трекер RUTOR.IN, Не можете зайти на rutor.org? Какой новый адрес рутор? Какое зеркало рутор? Не работает rutor.org и зеркала? Тогда наш торрент специально для вас. Rutor.in неофициальное зеркало rutor. В случае если у Вас заблокирован rutor или вдруг Вы не можете на него зайти, то Вы без труда сможете скачать бесплатно и без рекламы последние новинки кино, игр, сериалов и прочего у нас, на Rutor.in. Не нужно использовать прокси, чтобы зайти на рутор, достаточно воспользоваться нашим ресурсом. Все новые фильмы, игры, сериалы, книги и музыка за 2013 и 2014 годы через торрент бесплатно. Скачивайте фильмы в хорошем качестве, игры для пк, xbox, playstation без регистрации. У нас вы найдете новые Зарубежные сериалы и Русские сериалы 2013, 2014, 2015 годов. Оставайтесь с нами, качайте любимые фильмы, игры, сериалы, книги и музыку.