img image001 image001 image001 image001 image001 image001 image001 image001 image001 image001 image001 image001 image001 image001 image001

Planets Sun Sun Sun
Статистика раздачи
Автор: PriZraK | Размер: 5.1 ГБ | Добавлен: 29 окт 2016
Раздают: 13    Качают: 8
Скачать торрент
Скачать торрент
Описание торрента

СообщениеДобавлено: 29 окт 2016 


«Сезон: 1 / Серии: 1-07 (22)»


Информация о сериале
Название: Голдберги
Оригинальное название: The Goldbergs
Год выхода: 2013-2014
Страна: США
Студии: Sony Pictures Television / Happy Madison Productions
Жанр: комедия
Продолжительность: 7 x ~22 мин.
Перевод: Любительский (многоголосый закадровый) - [KinoView] ex-Несмертельное оружие
Cубтитры: отсутствуют
Режиссеры: Сет Гордон, Трой Миллер, Джейсон Энслер
В ролях: Венди МакЛендон-Кови, Шон Джамброун, Трой Джентиле, Джефф Гарлин, Джордж Сигал, Хейли Оррантия, Джексон Оделл, Натали Элин Линд, Трой Уинбуш, Брек Бэйссингер, Стив Виб, Доусон Флетчер, Джинни Гарднер, Карен Гонзалез, Стефен Джаред, Мэттью Джонс, Дэвид Л. Кинг, Алекс Менесес, Рени Перси и др.
Описание:
До наступления эры блогов о воспитании, наград за посещаемость и аллергии на арахис была простая эпоха, именуемая восьмидесятыми. Счастливые годочки для 11-летнего гика Адама, который встречал их, вооруженный видеокамерой.
Семья Голдбергов – обычная семья, только вот кричат они чаще. Мама Беверли – типичная еврейская мамаша, властная и не уважающая личную свободу. Папа Мюррей пытается воспитывать детей без крика, несмотря на вспыльчивый характер. Сестре и красавице Эрике 17 лет, и с ней лучше не связываться. Отличнику Барри 16 лет, и у него классический синдром среднего ребенка. Младшенький Адам будет режиссером, когда вырастет. Любимый дедушка Эл Соломон – престарелый донжуан, который учит Адама премудростям любви.

Файл
Качество: WEB-DL 720p
Формат: MKV
Видео кодек: H264
Аудио кодек: AC3
Видео: 1280x718 (16:9), 23.976 fps, ~3916 kbps, 0.178 bit/pixel
| Аудио #1: 48 kHz, AC3 Dolby Digital, 5.1, ~384.00 kbps | Rus | MVO
| Аудио #2: 48 kHz, AC3 Dolby Digital, 5.1, ~384.00 kbps | Eng | Original

Релиз от: KinoView



Эпизод: 01 - «Круговорот вождения»
Эпизод: 02 - «День отца и дочери»
Эпизод: 03 - «Мюррей в миниатюре»
Эпизод: 04 - «Почему ты себя бьешь?»
Эпизод: 05 - «Кольцо»
Эпизод: 06 - «Кому вы будете звонить?»
Эпизод: 07 - «Позвони, как доедешь»

Код:
General
Unique ID                   : 214221503429351104745753248890416292438 (0xA1298F91CF312A60882A433AD6BC6256)
Complete name               : The.Goldbergs.S01E01.The.Circle.of.Driving.WEB-DL.720p.H.264.RUS.-KinoView.mkv
Format                      : Matroska
Format version              : Version 2
File size                   : 737 MiB
Duration                    : 21mn 33s
Overall bit rate            : 4 780 Kbps
Movie name                  : Голдберги / Сезон: 1 / Эпизод: 01 - Круговорот вождения
Encoded date                : UTC 2016-10-27 11:01:11
Writing application         : mkvmerge v5.2.1 ('A Far Off Place') built on Jan  2 2012 23:21:10
Writing library             : libebml v1.2.3 + libmatroska v1.3.0
Cover                       : Yes
Attachments                 : Cover.jpg
Video
ID                          : 1
Format                      : AVC
Format/Info                 : Advanced Video Codec
Format profile              : High@L3.1
Format settings, CABAC      : No
Format settings, ReFrames   : 2 frames
Muxing mode                 : Header stripping
Codec ID                    : V_MPEG4/ISO/AVC
Duration                    : 21mn 33s
Bit rate                    : 3 917 Kbps
Width                       : 1 280 pixels
Height                      : 718 pixels
Display aspect ratio        : 16:9
Frame rate mode             : Constant
Frame rate                  : 23.976 fps
Color space                 : YUV
Chroma subsampling          : 4:2:0
Bit depth                   : 8 bits
Scan type                   : Progressive
Bits/(Pixel*Frame)          : 0.178
Stream size                 : 604 MiB (82%)
Title                       : Релиз от: KinoView
Language                    : English
Default                     : Yes
Forced                      : No
Color range                 : Limited
Color primaries             : BT.709
Transfer characteristics    : BT.709
Matrix coefficients         : BT.709
Audio #1
ID                          : 2
Format                      : AC-3
Format/Info                 : Audio Coding 3
Mode extension              : CM (complete main)
Format settings, Endianness : Big
Muxing mode                 : Header stripping
Codec ID                    : A_AC3
Duration                    : 21mn 33s
Bit rate mode               : Constant
Bit rate                    : 384 Kbps
Channel(s)                  : 6 channels
Channel positions           : Front: L C R, Side: L R, LFE
Sampling rate               : 48.0 KHz
Frame rate                  : 31.250 fps (1536 spf)
Compression mode            : Lossy
Stream size                 : 59.2 MiB (8%)
Title                       : MVO (KinoView)
Language                    : Russian
Default                     : Yes
Forced                      : No
Audio #2
ID                          : 3
Format                      : AC-3
Format/Info                 : Audio Coding 3
Mode extension              : CM (complete main)
Format settings, Endianness : Big
Muxing mode                 : Header stripping
Codec ID                    : A_AC3
Duration                    : 21mn 33s
Bit rate mode               : Constant
Bit rate                    : 384 Kbps
Channel(s)                  : 6 channels
Channel positions           : Front: L C R, Side: L R, LFE
Sampling rate               : 48.0 KHz
Frame rate                  : 31.250 fps (1536 spf)
Compression mode            : Lossy
Stream size                 : 59.2 MiB (8%)
Title                       : Original
Language                    : English
Default                     : No
Forced                      : No
 




   Похожие торренты   Торрент   Размер 
В этой теме нет новых непрочитанных сообщений. Умник / Cleverman [01х01-04 из 06] (2016) WEB-DL 720p | KinoView

2 | 6

6.48 ГБ

В этой теме нет новых непрочитанных сообщений. Безмозглые / BrainDead [01х01-03 из 13] (2016) WEB-DL 720p | KinoView

3 | 1

4.34 ГБ

В этой теме нет новых непрочитанных сообщений. В объезд / The Detour [01х01-08 из 10] (2016) WEB-DL 720p | KinoView

0 | 0

5.49 ГБ

В этой теме нет новых непрочитанных сообщений. Безмозглые / BrainDead [01х01 из 13] (2016) WEB-DL 720p | KinoView

1 | 0

1.46 ГБ

В этой теме нет новых непрочитанных сообщений. Безмозглые / BrainDead [01х01-11 из 13] (2016) WEB-DL 720p | KinoView

1 | 5

16.06 ГБ

В этой теме нет новых непрочитанных сообщений. Безмозглые / BrainDead [01х01-10 из 13] (2016) WEB-DL 720p | KinoView

2 | 7

14.58 ГБ

В этой теме нет новых непрочитанных сообщений. Умник / Cleverman [01х01-02 из 06] (2016) WEB-DL 720p | KinoView

6 | 1

3.25 ГБ




Вы не можете начинать темы
Вы не можете отвечать на сообщения
Вы не можете редактировать свои сообщения
Вы не можете удалять свои сообщения
Вы не можете добавлять вложения

Перейти:  
Для Мосгорсуда, Роскомнадзора и рекламодателей: mosgorsud-torrent[собачка]yandex.ru
 Вход
ppkBB3cker v.2 © 2008-2014 @ PPK
[ Time : 0.541s | 19 Queries | GZIP : Off ]

Торрент трекер RUTOR.IN, Не можете зайти на rutor.org? Какой новый адрес рутор? Какое зеркало рутор? Не работает rutor.org и зеркала? Тогда наш торрент специально для вас. Rutor.in неофициальное зеркало rutor. В случае если у Вас заблокирован rutor или вдруг Вы не можете на него зайти, то Вы без труда сможете скачать бесплатно и без рекламы последние новинки кино, игр, сериалов и прочего у нас, на Rutor.in. Не нужно использовать прокси, чтобы зайти на рутор, достаточно воспользоваться нашим ресурсом. Все новые фильмы, игры, сериалы, книги и музыка за 2013 и 2014 годы через торрент бесплатно. Скачивайте фильмы в хорошем качестве, игры для пк, xbox, playstation без регистрации. У нас вы найдете новые Зарубежные сериалы и Русские сериалы 2013, 2014, 2015 годов. Оставайтесь с нами, качайте любимые фильмы, игры, сериалы, книги и музыку.
cron