img image001 image001 image001 image001 image001 image001 image001 image001 image001 image001 image001 image001 image001 image001 image001

Planets Sun Sun Sun
Статистика раздачи
Автор: PriZraK | Размер: 8.55 ГБ | Добавлен: 29 окт 2016
Раздают: 213    Качают: 19
Скачать торрент
Скачать торрент
Описание торрента

СообщениеДобавлено: 29 окт 2016 


Анонсы 1080p от qqss44



✘ В поисках Дори ✘



Информация о фильме
✦ Год выхода: 2016
✦ Название: В поисках Дори
✦ Жанр: Мультфильм, комедия, приключения, семейный
✦ Оригинальное название: Finding Dory
✦ Режиссер: Эндрю Стэнтон, Энгус МакЛэйн
✦ В ролях: Эллен ДеДженерес, Альберт Брукс, Эд О’Нил, Кэйтлин Олсон, Хайден Роуленс, Тай Буррелл, Дайан Китон, Юджин Леви, Слоун Мюррэй, Идрис Эльба

Описание фильма
Дори — синяя доброжелательная рыбка-хирург, страдающая провалами в памяти. Она упорно стремится избавиться от своего недуга и найти свою семью.

✦ Страна: США
✦ Продолжительность: 01:37:04
✦ Перевод: дублированный -
iTunes

Информация о файле
✦ Формат:| MKV | x264 |
✦ Качество: BDRip 1080p
✦ Видео: X264/MPEG4-AVC | 1920x1080 (16:9) | ~11586 kbps | 23.976 fps
✦ Аудио Rus: AC3 | 48 KHz | 5.1 (Front: L С R Side: L R) + LFE | ~384 kbps
✦ Аудио Eng: AC3 | 48 KHz | 5.1 (Front: L С R Side: L R) + LFE | ~640 kbps
✦ Субтитры: | (полные) | английские (полные) |

x264 [info]: frame I:778 Avg QP:15.55 size:252614
x264 [info]: frame P:42352 Avg QP:18.20 size: 99458
x264 [info]: frame B:96496 Avg QP:19.38 size: 41749
Общее
Уникальный идентификатор : 200851298527329788306505127030431147614 (0x971A8D92BCC3ADFCAB580E5CFA53E65E)
Полное имя : X:ATorrentFinding.Dory.(2016).BDRip1080p.(qqss44).mkv
Формат : Matroska
Версия формата : Version 2
Размер файла : 8,55 Гбайт
Продолжительность : 1 ч. 37 м.
Общий поток : 12,6 Мбит/сек
Название фильма : Finding.Dory.(2016).BDRip1080p.(qqss44)
Дата кодирования : UTC 2016-10-28 08:04:37
Программа кодирования : mkvmerge v7.9.0 ('Birds') 64bit
Библиотека кодирования : libebml v1.3.1 + libmatroska v1.4.2
Видео
Идентификатор : 1
Формат : AVC
Формат/Информация : Advanced Video Codec
Профиль формата : High@L4.1
Параметр CABAC формата : Да
Параметр ReFrames формата : 4 кадра
Идентификатор кодека : V_MPEG4/ISO/AVC
Продолжительность : 1 ч. 37 м.
Битрейт : 11,6 Мбит/сек
Ширина : 1920 пикселей
Высота : 1080 пикселей
Соотношение сторон : 16:9
Режим частоты кадров : Постоянный
Частота кадров : 23,976 (24000/1001) кадра/сек
Цветовое пространство : YUV
Субдискретизация насыщенности : 4:2:0
Битовая глубина : 8 бит
Тип развёртки : Прогрессивная
Бит/(Пиксели*Кадры) : 0.233
Размер потока : 7,86 Гбайт (92%)
Заголовок : Finding.Dory.(2016)
Библиотека кодирования : x264 core 148 r2721kMod 72d53ab
Настройки программы : cabac=1 / ref=4 / deblock=1:-1:-2 / analyse=0x3:0x133 / me=umh / subme=11 / psy=1 / fade_compensate=0.00 / psy_rd=1.00:0.00 / mixed_ref=1 / me_range=32 / chroma_me=1 / trellis=2 / 8x8dct=1 / cqm=0 / deadzone=21,11 / fast_pskip=0 / chroma_qp_offset=-2 / threads=12 / lookahead_threads=2 / sliced_threads=0 / nr=0 / decimate=0 / interlaced=0 / bluray_compat=0 / constrained_intra=0 / fgo=0 / bframes=9 / b_pyramid=2 / b_adapt=2 / b_bias=0 / direct=3 / weightb=1 / open_gop=0 / weightp=2 / keyint=240 / keyint_min=23 / scenecut=40 / intra_refresh=0 / rc=2pass / mbtree=0 / bitrate=11586 / ratetol=1.0 / qcomp=0.60 / qpmin=0 / qpmax=69 / qpstep=4 / cplxblur=20.0 / qblur=0.5 / ip_ratio=1.40 / pb_ratio=1.30 / aq=3:0.80
Язык : English
Default : Да
Forced : Нет
Аудио #1
Идентификатор : 2
Формат : AC-3
Формат/Информация : Audio Coding 3
Расширение режима : CM (complete main)
Параметр Endianness формата : Big
Идентификатор кодека : A_AC3
Продолжительность : 1 ч. 37 м.
Вид битрейта : Постоянный
Битрейт : 384 Кбит/сек
Каналы : 6 каналов
Расположение каналов : Front: L C R, Side: L R, LFE
Частота : 48,0 КГц
Частота кадров : 31,250 кадров/сек (1536 spf)
Метод сжатия : С потерями
Размер потока : 267 Мбайт (3%)
Заголовок : DUB | DD5.1 @ 384 kbps
Язык : Russian
Default : Да
Forced : Нет
Аудио #2
Идентификатор : 3
Формат : AC-3
Формат/Информация : Audio Coding 3
Расширение режима : CM (complete main)
Параметр Endianness формата : Big
Идентификатор кодека : A_AC3
Продолжительность : 1 ч. 37 м.
Вид битрейта : Постоянный
Битрейт : 640 Кбит/сек
Каналы : 6 каналов
Расположение каналов : Front: L C R, Side: L R, LFE
Частота : 48,0 КГц
Частота кадров : 31,250 кадров/сек (1536 spf)
Метод сжатия : С потерями
Размер потока : 444 Мбайт (5%)
Заголовок : Original | DD5.1 @ 640 kbps
Язык : English
Default : Нет
Forced : Нет
Текст #1
Идентификатор : 4
Формат : UTF-8
Идентификатор кодека : S_TEXT/UTF8
Идентификатор кодека/Информация : UTF-8 Plain Text
Продолжительность : 1 ч. 35 м.
Битрейт : 127 бит/сек
Count of elements : 1469
Размер потока : 89,0 Кбайт (0%)
Заголовок : Full
Язык : Russian
Default : Нет
Forced : Нет
Текст #2
Идентификатор : 5
Формат : UTF-8
Идентификатор кодека : S_TEXT/UTF8
Идентификатор кодека/Информация : UTF-8 Plain Text
Продолжительность : 1 ч. 35 м.
Битрейт : 81 бит/сек
Count of elements : 1472
Размер потока : 57,1 Кбайт (0%)
Заголовок : Full
Язык : English
Default : Нет
Forced : Нет
Меню
00:00:00.000 : en:Chapter 01
00:02:35.738 : en:Chapter 02
00:06:50.243 : en:Chapter 03
00:10:53.194 : en:Chapter 04
00:13:33.187 : en:Chapter 05
00:15:25.132 : en:Chapter 06
00:17:03.313 : en:Chapter 07
00:19:35.465 : en:Chapter 08
00:21:35.293 : en:Chapter 09
00:24:58.705 : en:Chapter 10
00:27:08.543 : en:Chapter 11
00:30:33.206 : en:Chapter 12
00:35:00.264 : en:Chapter 13
00:37:52.019 : en:Chapter 14
00:40:17.998 : en:Chapter 15
00:41:06.672 : en:Chapter 16
00:42:30.422 : en:Chapter 17
00:46:03.427 : en:Chapter 18
00:48:41.710 : en:Chapter 19
00:50:27.857 : en:Chapter 20
00:55:06.678 : en:Chapter 21
00:57:05.838 : en:Chapter 22
01:00:41.345 : en:Chapter 23
01:04:32.952 : en:Chapter 24
01:10:36.815 : en:Chapter 25
01:12:28.301 : en:Chapter 26
01:14:09.861 : en:Chapter 27
01:18:26.493 : en:Chapter 28
01:26:49.328 : en:Chapter 29
01:37:03.400 : en:Chapter 30

Релиз от:



   Похожие торренты   Торрент   Размер 
В этой теме нет новых непрочитанных сообщений. В поисках Дори / Finding Dory (2016) BDRip 1080p от New-Team & qqss44 | Локализованная версия | Лицензия

160 | 18

7.77 ГБ

В этой теме нет новых непрочитанных сообщений. В поисках Дори / Finding Dory (2016) BDRip 1080p от New-Team | iTunes

16 | 3

11.73 ГБ

В этой теме нет новых непрочитанных сообщений. В поисках Дори / Finding Dory (2016) BDRip 720p от New-Team | iTunes

69 | 9

5.02 ГБ

В этой теме нет новых непрочитанных сообщений. В поисках Дори / Finding Dory (2016) BDRip 1080p от ExKinoRay | iTunes

119 | 11

9.49 ГБ

В этой теме нет новых непрочитанных сообщений. В поисках Дори / Finding Dory (2016) BDRip 1080p от Ash61 | 3D-Video | halfOU | iTunes

42 | 8

9.41 ГБ

В этой теме нет новых непрочитанных сообщений. В поисках Дори / Finding Dory (2016) WEB-DL 1080p от ExKinoRay | iTunes

63 | 3

3.99 ГБ

В этой теме нет новых непрочитанных сообщений. В поисках Дори / Finding Dory (2016) BDRemux 1080p от ExKinoRay | iTunes

7 | 3

19.36 ГБ




Вы не можете начинать темы
Вы не можете отвечать на сообщения
Вы не можете редактировать свои сообщения
Вы не можете удалять свои сообщения
Вы не можете добавлять вложения

Перейти:  
Для Мосгорсуда, Роскомнадзора и рекламодателей: mosgorsud-torrent[собачка]yandex.ru
 Вход
ppkBB3cker v.2 © 2008-2014 @ PPK
[ Time : 0.060s | 15 Queries | GZIP : Off ]

Торрент трекер RUTOR.IN, Не можете зайти на rutor.org? Какой новый адрес рутор? Какое зеркало рутор? Не работает rutor.org и зеркала? Тогда наш торрент специально для вас. Rutor.in неофициальное зеркало rutor. В случае если у Вас заблокирован rutor или вдруг Вы не можете на него зайти, то Вы без труда сможете скачать бесплатно и без рекламы последние новинки кино, игр, сериалов и прочего у нас, на Rutor.in. Не нужно использовать прокси, чтобы зайти на рутор, достаточно воспользоваться нашим ресурсом. Все новые фильмы, игры, сериалы, книги и музыка за 2013 и 2014 годы через торрент бесплатно. Скачивайте фильмы в хорошем качестве, игры для пк, xbox, playstation без регистрации. У нас вы найдете новые Зарубежные сериалы и Русские сериалы 2013, 2014, 2015 годов. Оставайтесь с нами, качайте любимые фильмы, игры, сериалы, книги и музыку.