img image001 image001 image001 image001 image001 image001 image001 image001 image001 image001 image001 image001 image001 image001 image001

Planets Sun Sun Sun
Статистика раздачи
Автор: PriZraK | Размер: 6.7 ГБ | Добавлен: 03 ноя 2016
Раздают: 15    Качают: 6
Скачать торрент
Скачать торрент
Описание торрента

СообщениеДобавлено: 03 ноя 2016 


Давай ещё, Тэд / Better Off Ted
Страна: США
Производство: 20th Century Fox Television, Garfield Grove Productions
Год выпуска: 2009-2010
Сезоны: 1-2
Жанр: комедия
Продолжительность: 26х ~00:22:00
Режиссеры: Майкл Фреско, Марк Баклэнд, Ли Шаллат Чемел
Авторы сценария: Виктор Фреско, Ингрид Эскахеда, Майкл Тевербо
В ролях: Джей Хэррингтон, Порша де Росси, Андреа Андерс, Джонатан Славин, Малкольм Баррет, Изабелла Акрес, Джонна Кае Волц, Терри Роудс
Описание: Для команды «Veridian Technologies» нет недостижимых успехов. Нужна индюшка-самоубийца..? Пожалуйста! Нужен сплав, твёрдый, как сталь, но в то же время упругий и съедобный..? Получите! Глава отдела исследований и развития Тэд Крисп обожает свою работу. Ему всё в ней нравится. Нравится его супер-босс, Вероника. Нравятся его коллеги, Лем, Фил и Линда. Особенно Линда. Но больше всего ему нравится то, чем они занимаются. Стирая границы между фантазиями и реальностью, команда исследователей постоянно превращает до смешного невозможное в шикарно возможное…

Перевод: Профессиональный (многоголосый, закадровый) | ТНТ
Субтитры: нет

Качество: WEB-DLRip
Формат: AVI
Видео кодек: XviD
Аудио кодек: АС3
Видео: 720x400 (16:9), 25.000 fps, XviD build 65 ~1 600 kbps avg
Аудио: 48.0 kHz, AC3 Dolby Digital, 2/0 (L,R) ch, ~192 kbps
Дата премьеры (мир): 18 марта 2009
Дата премьеры (РФ): 18 сентября 2012
General
Полное имя : Davay.ewe.Ted.s01e01.2009.WEB-DLRip.avi
Формат : AVI
Формат/Информация : Audio Video Interleave
Размер файла : 261 Мбайт
Продолжительность : 20 м.
Общий поток : 1742 Кбит/сек
Программа кодирования : VirtualDubMod 1.5.10.3 | (build 2550/release)
Библиотека кодирования : VirtualDubMod build 2550/release
Видео
Идентификатор : 0
Формат : MPEG-4 Visual
Профиль формата : Advanced Simple@L5
Параметр BVOP формата : 2
Параметр QPel формата : Нет
Параметр GMC формата : Без точки перехода
Параметр матрицы формата : Default (H.263)
Идентификатор кодека : XVID
Идентификатор кодека/Подсказка : XviD
Продолжительность : 20 м.
Битрейт : 1540 Кбит/сек
Ширина : 720 пикселей
Высота : 400 пикселей
Соотношение сторон : 16:9
Частота кадров : 25,000 кадров/сек
Цветовое пространство : YUV
Субдискретизация насыщенности : 4:2:0
Битовая глубина : 8 бит
Тип развёртки : Прогрессивная
Метод сжатия : С потерями
Бит/(Пиксели*Кадры) : 0.214
Размер потока : 231 Мбайт (88%)
Библиотека кодирования : XviD 65
Аудио
Идентификатор : 1
Формат : AC-3
Формат/Информация : Audio Coding 3
Расширение режима : CM (complete main)
Параметр Endianness формата : Big
Идентификатор кодека : 2000
Продолжительность : 20 м.
Вид битрейта : Постоянный
Битрейт : 192 Кбит/сек
Каналы : 2 канала
Расположение каналов : Front: L R
Частота : 48,0 КГц
Битовая глубина : 16 бит
Метод сжатия : С потерями
Размер потока : 28,8 Мбайт (11%)
Выравнивание : Разделение по промежуткам
Продолжительность промежутка : 40 мс. (1,00 видеокадр)
Время предзагрузки промежутка : 500 мс.



   Похожие торренты   Торрент   Размер 
В этой теме нет новых непрочитанных сообщений. Давай повеселимся / Давай сойдём с ума / Lets go crazy (1951) BDRip от HQ-ViDEO

0 | 2

478.38 МБ

В этой теме нет новых непрочитанных сообщений. Давай поговорим о сексе / Давай поговоримо про секс [01-06] (2014) SATRip

209 | 193

8.59 ГБ

В этой теме нет новых непрочитанных сообщений. Давай поженимся в Украине / Давай одружимося в Україні (2013) SATRip

0 | 3

6.31 ГБ

В этой теме нет новых непрочитанных сообщений. Ирина Дубцова и группа «Давай! Давай!» - Звезда №1 (2004) FLAC

1 | 3

394.25 МБ

В этой теме нет новых непрочитанных сообщений. Давай поговорим о СЕКСЕ / Давай поговоримо про СЕКС [01-05] (2014) SATRip

215 | 114

7.13 ГБ

В этой теме нет новых непрочитанных сообщений. Давай сделаем это легально / Давай поженимся / Let's Make It Legal (1951) DVDRip от egoleshik | P

37 | 13

1.18 ГБ

В этой теме нет новых непрочитанных сообщений. Ирина Дубцова и группа «Давай! Давай!» - Звезда №1 (2004) MP3

1 | 2

101.26 МБ




Вы не можете начинать темы
Вы не можете отвечать на сообщения
Вы не можете редактировать свои сообщения
Вы не можете удалять свои сообщения
Вы не можете добавлять вложения

Перейти:  
Для Мосгорсуда, Роскомнадзора и рекламодателей: mosgorsud-torrent[собачка]yandex.ru
 Вход
ppkBB3cker v.2 © 2008-2014 @ PPK
[ Time : 0.044s | 14 Queries | GZIP : On ]

Торрент трекер RUTOR.IN, Не можете зайти на rutor.org? Какой новый адрес рутор? Какое зеркало рутор? Не работает rutor.org и зеркала? Тогда наш торрент специально для вас. Rutor.in неофициальное зеркало rutor. В случае если у Вас заблокирован rutor или вдруг Вы не можете на него зайти, то Вы без труда сможете скачать бесплатно и без рекламы последние новинки кино, игр, сериалов и прочего у нас, на Rutor.in. Не нужно использовать прокси, чтобы зайти на рутор, достаточно воспользоваться нашим ресурсом. Все новые фильмы, игры, сериалы, книги и музыка за 2013 и 2014 годы через торрент бесплатно. Скачивайте фильмы в хорошем качестве, игры для пк, xbox, playstation без регистрации. У нас вы найдете новые Зарубежные сериалы и Русские сериалы 2013, 2014, 2015 годов. Оставайтесь с нами, качайте любимые фильмы, игры, сериалы, книги и музыку.