img image001 image001 image001 image001 image001 image001 image001 image001 image001 image001 image001 image001 image001 image001 image001

Planets Sun Sun Sun
Статистика раздачи
Автор: PriZraK | Размер: 10.43 ГБ | Добавлен: 03 ноя 2016
Раздают: 12    Качают: 6
Скачать торрент
Скачать торрент
Описание торрента

СообщениеДобавлено: 03 ноя 2016 


Информация о фильме
Оригинальное название: Глухарь
Год выхода: 2008
Жанр: Детектив, драма
Режиссер: Гузэль Киреева, Вячеслав Каминский, Сергей Лесогоров
В ролях: Максим Аверин, Денис Рожков, Виктория Тарасова, Мария Болтнева, Владимир Фекленко, Евгений Самарин, Юлия Самойленко, Алёна Бочкарева, Марина Штода, Роман Хеидзе, Александр Баринов, Борис Покровский (II), Александр Бобров, Максим Мальцев, Юрий Макеев, Сергей Иволоци, Виктор Андрианов, Дмитрий Гусев, Анна Гросицкая, Вадим Асеев, Андрей Щукин, Сергей Лобынцев, Андрей Толшин, Мария Кресина, Игорь Денисов
О фильме:
Молодой следователь Серёжа Глухарёв и его лучший друг Денис Антошин, сотрудник районного ДПС — друзья с детства. Тяжелая и опасная работа, маленькая зарплата, семейные проблемы — всё это изменило их, и далеко не в лучшую сторону. Однако друзья стараются, насколько это возможно, оставаться человечными. Здесь главное — не преступления и наказания, а люди… человеческие истории… трагедии… Поэтому «Глухарь», его друзья и коллеги, не теряя чувства юмора и присутствия духа, продолжают охранять правопорядок оставляя себе время и для маленьких человеческих слабостей...

Страна: Россия
Студия: DIXI-TV
Продолжительность: 48 х ~ 00:49:00
Перевод: Не требуется
Файл
Формат: MP4
Качество: WEB-DLRip | КПК
Видео: MPEG-4 AVC (x264), 640x360, ~500 kbps, 23.976 fps
Аудио: AAC LC, 48.0 KHz, 2 ch, 128 Kbps
Субтитры: Нет
Семпл

Complete name : E:KinoGluhar'.S01.2008.AVC.WEB-DLRip.KPK.GFGluhar'.s01e12.2008.AVC.WEB-DLRip.KPK.GF.mp4
Format : MPEG-4
Codec ID : M4V (isom/iso2/avc1)
File size : 215 MiB
Duration : 47mn 25s
Overall bit rate mode : Variable
Overall bit rate : 633 Kbps
Writing application : Lavf53.19.0
Video
ID : 1
Format : AVC
Format/Info : Advanced Video Codec
Format profile : High@L4.1
Format settings, CABAC : Yes
Format settings, ReFrames : 8 frames
Codec ID : avc1
Codec ID/Info : Advanced Video Coding
Duration : 47mn 25s
Bit rate : 500 Kbps
Width : 640 pixels
Height : 360 pixels
Display aspect ratio : 16:9
Frame rate mode : Constant
Frame rate : 23.976 (23976/1000) fps
Color space : YUV
Chroma subsampling : 4:2:0
Bit depth : 8 bits
Scan type : Progressive
Bits/(Pixel*Frame) : 0.091
Stream size : 170 MiB (79%)
Writing library : x264 core 146 r2538 121396c
Encoding settings : cabac=1 / ref=8 / deblock=1:-2:-2 / analyse=0x3:0x133 / me=umh / subme=10 / psy=1 / psy_rd=1.00:0.00 / mixed_ref=1 / me_range=24 / chroma_me=1 / trellis=2 / 8x8dct=1 / cqm=0 / deadzone=21,11 / fast_pskip=1 / chroma_qp_offset=-2 / threads=12 / lookahead_threads=2 / sliced_threads=0 / nr=0 / decimate=0 / interlaced=0 / bluray_compat=0 / constrained_intra=0 / bframes=8 / b_pyramid=2 / b_adapt=2 / b_bias=0 / direct=3 / weightb=1 / open_gop=0 / weightp=2 / keyint=240 / keyint_min=121 / scenecut=40 / intra_refresh=0 / rc_lookahead=40 / rc=2pass / mbtree=1 / bitrate=500 / ratetol=1.0 / qcomp=0.60 / qpmin=0 / qpmax=69 / qpstep=4 / cplxblur=20.0 / qblur=0.5 / ip_ratio=1.40 / aq=1:1.00
Menus : 3
Audio
ID : 2
Format : AAC
Format/Info : Advanced Audio Codec
Format profile : LC
Codec ID : 40
Duration : 47mn 25s
Bit rate mode : Variable
Bit rate : 128 Kbps
Channel(s) : 2 channels
Channel positions : Front: L R
Sampling rate : 48.0 KHz
Frame rate : 46.875 fps (1024 spf)
Compression mode : Lossy
Stream size : 43.3 MiB (20%)
Default : Yes
Alternate group : 1
Menus : 3

Релиз от:



   Похожие торренты   Торрент   Размер 
В этой теме нет новых непрочитанных сообщений. Глухарь [S03 + Глухарь. Снова Новый!] (2010) WEB-DLRip от Generalfilm | КПК

21 | 0

14.3 ГБ

В этой теме нет новых непрочитанных сообщений. Глухарь [S02 + Глухарь. Приходи, Новый Год!] (2009) WEB-DLRip от Generalfilm | КПК

14 | 7

10.84 ГБ

В этой теме нет новых непрочитанных сообщений. Глухарь [01-48 из 48] (2008) WEB-DLRip от Generalfilm | КПК

156 | 137

9.25 ГБ

В этой теме нет новых непрочитанных сообщений. Глухарь [S01-03] (2008-2011) WEB-DLRip от biggross

140 | 564

104.72 ГБ

В этой теме нет новых непрочитанных сообщений. Глухарь 2 [S02] + Глухарь. Приходи, Новый Год! (2009) DVDRip

89 | 92

18.07 ГБ

В этой теме нет новых непрочитанных сообщений. Глухарь [S01] (2008) DVDRip

464 | 216

16.44 ГБ

В этой теме нет новых непрочитанных сообщений. Глухарь [S01-03] (2008-2011) DVDRip

208 | 346

74.22 ГБ




Вы не можете начинать темы
Вы не можете отвечать на сообщения
Вы не можете редактировать свои сообщения
Вы не можете удалять свои сообщения
Вы не можете добавлять вложения

Перейти:  
Для Мосгорсуда, Роскомнадзора и рекламодателей: mosgorsud-torrent[собачка]yandex.ru
 Вход
ppkBB3cker v.2 © 2008-2014 @ PPK
[ Time : 0.058s | 14 Queries | GZIP : Off ]
CGP output time : 0.015s | 5 Queries | GZIP : Off

Торрент трекер RUTOR.IN, Не можете зайти на rutor.org? Какой новый адрес рутор? Какое зеркало рутор? Не работает rutor.org и зеркала? Тогда наш торрент специально для вас. Rutor.in неофициальное зеркало rutor. В случае если у Вас заблокирован rutor или вдруг Вы не можете на него зайти, то Вы без труда сможете скачать бесплатно и без рекламы последние новинки кино, игр, сериалов и прочего у нас, на Rutor.in. Не нужно использовать прокси, чтобы зайти на рутор, достаточно воспользоваться нашим ресурсом. Все новые фильмы, игры, сериалы, книги и музыка за 2013 и 2014 годы через торрент бесплатно. Скачивайте фильмы в хорошем качестве, игры для пк, xbox, playstation без регистрации. У нас вы найдете новые Зарубежные сериалы и Русские сериалы 2013, 2014, 2015 годов. Оставайтесь с нами, качайте любимые фильмы, игры, сериалы, книги и музыку.