img image001 image001 image001 image001 image001 image001 image001 image001 image001 image001 image001 image001 image001 image001 image001

Planets Sun Sun Sun
Статистика раздачи
Автор: PriZraK | Размер: 1.45 ГБ | Добавлен: 06 ноя 2016
Раздают: 206    Качают: 83
Скачать торрент
Скачать торрент
Описание торрента

СообщениеДобавлено: 06 ноя 2016 


Информация о фильме
Оригинальное название: Стена
Год выпуска: 2016
Жанр: Драма, исторический, военный, экранизация
Режиссер: Дмитрий Месхиев
В ролях: Алексей Серебряков, Анатолий Белый, Павел Чинарёв, Николай Аузин, Алиса Горшкова, Максим Белбородов, Ольга Павловец, Кирилл Полухин, Роман Агеев, Алексей Севастьянов, Оксана Пчелинова, Дмитрий Лебедев, Алёна Кучкова, Степан Пивкин
О фильме:
По мотивам историко-приключенческого романа Владимира Мединского «Стена». 1609 год. Польский король Сигизмунд III идет войной на Москву, и его первая цель – Смоленск. В пограничном городе Орше оказывается молодой служащий посольского приказа Григорий Колдырев. Он узнает, что на самом деле Сигизмунд охотится за сокровищами ордена госпитальеров, спрятанных в Смоленске. Ходит легенда, что нашедший сокровища сможет полностью изменить ход истории. Григорий спешит в Смоленск. В городе свои заботы – воевода Михаил Шеин готовится к обороне и непростому военному времени, переводит посадских людей в крепость. Тут еще и сбегает его приемный сын, Санька. Но самое страшное – он подозревает, что в крепости завелся предатель, который выдаст армии врага план тайных ходов, которые делают крепость почти неприступной. Его правая рука, Андрей Дедюшин, сын строителя крепости и без пяти минут зять воеводы, старается развеять его опасения. Прибыв в Смоленск, Григорий начинает распутывать историю о сокровищах и ищет предателя крепости. Но все местные настроены против него – подозрительный чужак, которому почему-то с полуслова доверяет сам воевода, и в которого в первого взгляда

Страна: Россия
Студия: Студия «Нон-стоп Продакшн»
Продолжительность: 4 x ~ 00:40:00
Перевод: Не требуется
Файл
Формат: AVI
Качество: HDTVRip
Видео: XviD build 73, 688x384 (16:9), 25.000 fps, ~ 1180 Kbps (~ 0.175 bit/pixel)
Звук: 48.0 kHz, MP3, 2/0 ch, 128 kbps
Субтитры: нет
General
Complete name : Stena.2016.XviD.HDTVRip.GeneralFilmSerija.01.avi
Format : AVI
Format/Info : Audio Video Interleave
File size : 372 MiB
Duration : 39mn 42s
Overall bit rate : 1 310 Kbps
Writing application : VirtualDubMod 1.5.10.3 | www.virtualdub-fr.org || (build 2550/release)
Writing library : VirtualDubMod build 2550/release
Video
ID : 0
Format : MPEG-4 Visual
Format profile : Advanced Simple@L5
Format settings, BVOP : 1
Format settings, QPel : No
Format settings, GMC : No warppoints
Format settings, Matrix : Custom
Codec ID : XVID
Codec ID/Hint : XviD
Duration : 39mn 42s
Bit rate : 1 172 Kbps
Width : 688 pixels
Height : 384 pixels
Display aspect ratio : 16:9
Frame rate : 25.000 fps
Color space : YUV
Chroma subsampling : 4:2:0
Bit depth : 8 bits
Scan type : Progressive
Compression mode : Lossy
Bits/(Pixel*Frame) : 0.177
Stream size : 333 MiB (89%)
Writing library : XviD 73
Audio
ID : 1
Format : MPEG Audio
Format version : Version 1
Format profile : Layer 3
Codec ID : 55
Codec ID/Hint : MP3
Duration : 39mn 42s
Bit rate mode : Constant
Bit rate : 128 Kbps
Channel(s) : 2 channels
Sampling rate : 48.0 KHz
Compression mode : Lossy
Stream size : 36.4 MiB (10%)
Alignment : Aligned on interleaves
Interleave, duration : 40 ms (1.00 video frame)
Interleave, preload duratio : 504 ms
Writing library : LAME3.99r
Encoding settings : -m s -V 4 -q 0 -lowpass 17 -b 128




Релиз от:



   Похожие торренты   Торрент   Размер 
В этой теме нет новых непрочитанных сообщений. Великая стена / The Great Wall (2016) WEB-DLRip от Generalfilm | КПК | iTunes

177 | 17

385.84 МБ

В этой теме нет новых непрочитанных сообщений. Стена [01-02 из 02] (2016) HDTVRip от Files-x

170 | 10

2.55 ГБ

В этой теме нет новых непрочитанных сообщений. Стена [01-02 из 02] (2016) HDTVRip-AVC от Files-x

23 | 2

2.41 ГБ

В этой теме нет новых непрочитанных сообщений. Роджер Уотерс: Стена / Roger Waters the Wall [Первый канал HD] (2015) HDTV 1080i от GeneralFilm

20 | 0

6.58 ГБ

В этой теме нет новых непрочитанных сообщений. OST - Великая стена / The Great Wall (2016) MP3

4 | 1

146.21 МБ

В этой теме нет новых непрочитанных сообщений. Стена [01-02 из 02] (2016) HDTV 1080i от Files-x

53 | 3

9.51 ГБ

В этой теме нет новых непрочитанных сообщений. Великая стена / The Great Wall (2016) CAMRip | L

3036 | 109

1.37 ГБ




Вы не можете начинать темы
Вы не можете отвечать на сообщения
Вы не можете редактировать свои сообщения
Вы не можете удалять свои сообщения
Вы не можете добавлять вложения

Перейти:  
Для Мосгорсуда, Роскомнадзора и рекламодателей: mosgorsud-torrent[собачка]yandex.ru
 Вход
ppkBB3cker v.2 © 2008-2014 @ PPK
[ Time : 0.073s | 15 Queries | GZIP : Off ]

Торрент трекер RUTOR.IN, Не можете зайти на rutor.org? Какой новый адрес рутор? Какое зеркало рутор? Не работает rutor.org и зеркала? Тогда наш торрент специально для вас. Rutor.in неофициальное зеркало rutor. В случае если у Вас заблокирован rutor или вдруг Вы не можете на него зайти, то Вы без труда сможете скачать бесплатно и без рекламы последние новинки кино, игр, сериалов и прочего у нас, на Rutor.in. Не нужно использовать прокси, чтобы зайти на рутор, достаточно воспользоваться нашим ресурсом. Все новые фильмы, игры, сериалы, книги и музыка за 2013 и 2014 годы через торрент бесплатно. Скачивайте фильмы в хорошем качестве, игры для пк, xbox, playstation без регистрации. У нас вы найдете новые Зарубежные сериалы и Русские сериалы 2013, 2014, 2015 годов. Оставайтесь с нами, качайте любимые фильмы, игры, сериалы, книги и музыку.
cron