img image001 image001 image001 image001 image001 image001 image001 image001 image001 image001 image001 image001 image001 image001 image001

Planets Sun Sun Sun
Статистика раздачи
Автор: PriZraK | Размер: 1.45 ГБ | Добавлен: 08 ноя 2016
Раздают: 70    Качают: 9
Скачать торрент
Скачать торрент
Описание торрента

СообщениеДобавлено: 08 ноя 2016 


Информация о фильме
Оригинальное название: Выйти замуж любой ценой
Год выпуска: 2016
Жанр: Мелодрама, детектив
Режиссер: Александр Сухарев
В ролях: Наталья Земцова, Игорь Денисов, Святослав Астрамович, Анна Арефьева, Артём Осипов
О фильме:
Ирине скоро тридцать, и её самое страстное желание — удачно выйти замуж. И вот после полутора лет вялотекущего романа её шеф Юрий наконец-то делает предложение руки и сердца. А утром следующего дня Ирина просыпается в чужой квартире в постели с симпатичным молодым человеком, имени которого она не помнит. А на кухне — труп женщины.

Страна: Россия
Студия: ООО "Свэлл фильм"
Продолжительность: 4 x ~ 00:45:00
Перевод: Не требуется
Файл
Формат: avi
Качество: WEB-DLRip
Видео: XviD build 73, 688x384 (16:9), 25.000 fps, ~ 1020 Kbps (~ 0.155 bit/pixel)
Звук: 48.0 kHz, MP3, 2/0 ch, 128 kbps
Субтитры: нет
General
Complete name : Vyjti.Zamuzh.Ljuboj.Cenoj.2016.XviD.WEB-DLRip.GeneralFimSerija.01.avi
Format : AVI
Format/Info : Audio Video Interleave
File size : 372 MiB
Duration : 44mn 56s
Overall bit rate : 1 156 Kbps
Writing application : VirtualDubMod 1.5.10.3 | www.virtualdub-fr.org || (build 2550/release)
Writing library : VirtualDubMod build 2550/release
Video
ID : 0
Format : MPEG-4 Visual
Format profile : Advanced Simple@L5
Format settings, BVOP : 1
Format settings, QPel : No
Format settings, GMC : No warppoints
Format settings, Matrix : Custom
Codec ID : XVID
Codec ID/Hint : XviD
Duration : 44mn 56s
Bit rate : 1 018 Kbps
Width : 688 pixels
Height : 384 pixels
Display aspect ratio : 16:9
Frame rate : 25.000 fps
Color space : YUV
Chroma subsampling : 4:2:0
Bit depth : 8 bits
Scan type : Progressive
Compression mode : Lossy
Bits/(Pixel*Frame) : 0.154
Stream size : 327 MiB (88%)
Writing library : XviD 73
Audio
ID : 1
Format : MPEG Audio
Format version : Version 1
Format profile : Layer 3
Codec ID : 55
Codec ID/Hint : MP3
Duration : 44mn 56s
Bit rate mode : Constant
Bit rate : 128 Kbps
Channel(s) : 2 channels
Sampling rate : 48.0 KHz
Compression mode : Lossy
Stream size : 41.1 MiB (11%)
Alignment : Aligned on interleaves
Interleave, duration : 40 ms (1.00 video frame)
Interleave, preload duratio : 504 ms
Writing library : LAME3.99r
Encoding settings : -m s -V 4 -q 0 -lowpass 17 -b 128




Релиз от:



   Похожие торренты   Торрент   Размер 
В этой теме нет новых непрочитанных сообщений. Выйти замуж любой ценой [01-04 из 04] (2016) WEB-DLRip-AVC от Files-x

310 | 49

2.23 ГБ

В этой теме нет новых непрочитанных сообщений. Выйти замуж любой ценой [01-04 из 04] (2016) WEB-DLRip от Files-x

418 | 147

2.14 ГБ

В этой теме нет новых непрочитанных сообщений. Выйти замуж любой ценой [01-04 из 04] (2016) WEB-DL 720p от Files-x

192 | 34

1.67 ГБ

В этой теме нет новых непрочитанных сообщений. Выйти замуж любой ценой [01-04 из 04] (2016) WEB-DL 1080p от Files-x

135 | 20

3.22 ГБ

В этой теме нет новых непрочитанных сообщений. Выйти замуж любой ценой [01-02 из 04] (2016) SATRip от Files-x

175 | 21

2.15 ГБ

В этой теме нет новых непрочитанных сообщений. Выйти замуж любой ценой [01-04 из 04] (2016) SATRip-AVC от Files-x

30 | 9

1.71 ГБ

В этой теме нет новых непрочитанных сообщений. Как выйти замуж за 3 дня / Leap Year (2010) HDRip | КПК от Generalfilm

0 | 2

326.76 МБ




Вы не можете начинать темы
Вы не можете отвечать на сообщения
Вы не можете редактировать свои сообщения
Вы не можете удалять свои сообщения
Вы не можете добавлять вложения

Перейти:  
Для Мосгорсуда, Роскомнадзора и рекламодателей: mosgorsud-torrent[собачка]yandex.ru
 Вход
ppkBB3cker v.2 © 2008-2014 @ PPK
[ Time : 0.055s | 14 Queries | GZIP : Off ]

Торрент трекер RUTOR.IN, Не можете зайти на rutor.org? Какой новый адрес рутор? Какое зеркало рутор? Не работает rutor.org и зеркала? Тогда наш торрент специально для вас. Rutor.in неофициальное зеркало rutor. В случае если у Вас заблокирован rutor или вдруг Вы не можете на него зайти, то Вы без труда сможете скачать бесплатно и без рекламы последние новинки кино, игр, сериалов и прочего у нас, на Rutor.in. Не нужно использовать прокси, чтобы зайти на рутор, достаточно воспользоваться нашим ресурсом. Все новые фильмы, игры, сериалы, книги и музыка за 2013 и 2014 годы через торрент бесплатно. Скачивайте фильмы в хорошем качестве, игры для пк, xbox, playstation без регистрации. У нас вы найдете новые Зарубежные сериалы и Русские сериалы 2013, 2014, 2015 годов. Оставайтесь с нами, качайте любимые фильмы, игры, сериалы, книги и музыку.