img image001 image001 image001 image001 image001 image001 image001 image001 image001 image001 image001 image001 image001 image001 image001

Planets Sun Sun Sun
Статистика раздачи
Автор: PriZraK | Размер: 2.59 ГБ | Добавлен: 12 ноя 2016
Раздают: 14    Качают: 33
Скачать торрент
Скачать торрент
Описание торрента

СообщениеДобавлено: 12 ноя 2016 




Люцифер / Lucifer





Год выпуска: 2016
Страна США
Жанр:фэнтези, драма, криминал
Продолжительность: ~ 00:45:00
Перевод:Профессиональный многоголосый закадровый(Jaskier)
Субтитры: нет
Режиссер: Нэйтан Хоуп, Грег Биман, Майрзи Алмас
В ролях :Рэйчел Харрис, Лорен Джерман, Кайла Юэлл, Кевин Алехандро, Лесли-Энн Брандт, Д.Б. Вудсайд, Том Эллис, Мэтт Корбой, Скарлет Эстевез
Описание: Люцифер, эксцентричный Король демонов, заскучал на своем троне и решил посетить Лос-Анджелес, после чего он становится консультантом по расследованию убийств при местном полицейском управлении

    Качество:WEB-DLRip
    Формат: AVI
    Видео кодек: XviD
    Аудио кодеk: MP3
    Видео: 656x368 (1.79:1), 23.976 fps, XviD build 73 ~1074 kbps avg, 0.21 bit/pixel
    Аудио: 48 kHz, MP3, 2/0 (L,R) ch, ~128.00 kbps avg (RUS) Jaskier



Общее
Полное имя : H:Lucifer S02�1.avi
Формат : AVI
Формат/Информация : Audio Video Interleave
Размер файла : 381 Мбайт
Продолжительность : 43 м. 55 с.
Режим общего битрейта : Переменный
Общий поток : 1211 Кбит/сек
Программа кодирования : VirtualDubMod 1.5.10.3 | www.virtualdub-fr.org || (build 2550/release)
Библиотека кодирования : VirtualDubMod build 2550/release
Видео
Идентификатор : 0
Формат : MPEG-4 Visual
Профиль формата : Advanced Simple@L5
Параметр BVOP формата : 1
Параметр QPel формата : Нет
Параметр GMC формата : Без точки перехода
Параметр матрицы формата : Выборочная
Идентификатор кодека : DIVX
Идентификатор кодека/Информация : Project Mayo
Идентификатор кодека/Подсказка : DivX 4
Продолжительность : 43 м. 55 с.
Битрейт : 1074 Кбит/сек
Ширина : 656 пикселей
Высота : 368 пикселей
Соотношение сторон : 16:9
Частота кадров : 23,976 (24000/1001) кадра/сек
Цветовое пространство : YUV
Субдискретизация насыщенности : 4:2:0
Битовая глубина : 8 бит
Тип развёртки : Прогрессивная
Метод сжатия : С потерями
Бит/(Пиксели*Кадры) : 0.186
Размер потока : 337 Мбайт (89%)
Библиотека кодирования : XviD 73
Аудио
Идентификатор : 1
Формат : MPEG Audio
Версия формата : Version 1
Профиль формата : Layer 3
Режим : Joint stereo
Расширение режима : MS Stereo
Идентификатор кодека : 55
Идентификатор кодека/Подсказка : MP3
Продолжительность : 43 м. 55 с.
Вид битрейта : Переменный
Битрейт : 128 Кбит/сек
Каналы : 2 канала
Частота : 48,0 КГц
Метод сжатия : С потерями
Размер потока : 40,2 Мбайт (11%)
Выравнивание : Разделение по промежуткам
Продолжительность промежутка : 42 мс. (1,00 видеокадр)
Время предзагрузки промежутка : 500 мс.





   Похожие торренты   Торрент   Размер 
В этой теме нет новых непрочитанных сообщений. Люцифер / Lucifer [02x01-06 из 13] (2016) WEB-DLRip by Semak| Jaskier

18 | 34

2.22 ГБ

В этой теме нет новых непрочитанных сообщений. Люцифер / Lucifer [02x01-05 из 13] (2016) WEB-DLRip by Semak| Jaskier

12 | 39

1.85 ГБ

В этой теме нет новых непрочитанных сообщений. Люцифер / Lucifer [02x01-10 из 22] (2016) WEB-DLRip от Semak | Jaskier

49 | 185

3.72 ГБ

В этой теме нет новых непрочитанных сообщений. Люцифер / Lucifer [02x01-08 из 22] (2016) WEB-DLRip от Semak | Jaskier

11 | 33

2.96 ГБ

В этой теме нет новых непрочитанных сообщений. Люцифер / Lucifer [02x01-09 из 22] (2016) WEB-DLRip от Semak | Jaskier

6 | 15

3.33 ГБ

В этой теме нет новых непрочитанных сообщений. Люцифер / Lucifer [02x01-03 из 13] (2016) WEB-DLRip | Jaskier

0 | 0

1.63 ГБ

В этой теме нет новых непрочитанных сообщений. Люцифер / Lucifer [02x01 из 13] (2016) WEB-DLRip | Jaskier

21 | 0

393.05 МБ




Вы не можете начинать темы
Вы не можете отвечать на сообщения
Вы не можете редактировать свои сообщения
Вы не можете удалять свои сообщения
Вы не можете добавлять вложения

Перейти:  
Для Мосгорсуда, Роскомнадзора и рекламодателей: mosgorsud-torrent[собачка]yandex.ru
 Вход
ppkBB3cker v.2 © 2008-2014 @ PPK
[ Time : 0.030s | 15 Queries | GZIP : Off ]

Торрент трекер RUTOR.IN, Не можете зайти на rutor.org? Какой новый адрес рутор? Какое зеркало рутор? Не работает rutor.org и зеркала? Тогда наш торрент специально для вас. Rutor.in неофициальное зеркало rutor. В случае если у Вас заблокирован rutor или вдруг Вы не можете на него зайти, то Вы без труда сможете скачать бесплатно и без рекламы последние новинки кино, игр, сериалов и прочего у нас, на Rutor.in. Не нужно использовать прокси, чтобы зайти на рутор, достаточно воспользоваться нашим ресурсом. Все новые фильмы, игры, сериалы, книги и музыка за 2013 и 2014 годы через торрент бесплатно. Скачивайте фильмы в хорошем качестве, игры для пк, xbox, playstation без регистрации. У нас вы найдете новые Зарубежные сериалы и Русские сериалы 2013, 2014, 2015 годов. Оставайтесь с нами, качайте любимые фильмы, игры, сериалы, книги и музыку.