img image001 image001 image001 image001 image001 image001 image001 image001 image001 image001 image001 image001 image001 image001 image001

Planets Sun Sun Sun
Статистика раздачи
Автор: PriZraK | Размер: 1.46 ГБ | Добавлен: 12 ноя 2016, 23:19
Раздают: 35    Качают: 15
Скачать торрент
Скачать торрент
Описание торрента

СообщениеДобавлено: 12 ноя 2016, 23:19 


Информация о фильме
Оригинальное название: Джинн
Год выпуска: 2016
Жанр: Мелодрама
Режиссер: Андрей Селиванов
В ролях: Артём Осипов, Светлана Тома, Сергей Астахов, Татьяна Догилева, Артемий Падалка, Анастасия Шаповал
О фильме:
Актер Николай Демидов служит в детском театре, а Джинн - одна из его ролей. Но эту роль Демидов продолжает играть и в жизни: он - добряк, альтруист и фокусник-любитель, упорно верящий в чудеса. Чтобы помочь другим, Николай то вынесет из дома последнее, то пустит пожить в свою квартиру малознакомых людей. Жена Вера не выдерживает "фокусов" супруга, находит утешение в объятиях своего коллеги Юры и уходит с сыном Павликом к нему. Джинн пьет в своей пустой квартире, не в силах пережить потерю семьи. А Павлик не может примириться с новым будущим мужем мамы и сбегает обратно к Джинну. Николай идет на безумный шаг - они с сыном отправляются в путешествие. Но далеко уехать не успевают: Павлику становится плохо, и он попадает в больницу. Врачи ставят страшный диагноз - рак крови...

Страна: Россия
Студия: ООО «Аквилон-медиа»
Продолжительность: 4 x ~ 00:44:00
Перевод: Не требуется
Файл
Формат: avi
Качество: WEB-DLRip
Видео: XviD build 73, 688x384 (16:9), 25.000 fps, ~ 1050 Kbps (~ 0.159 bit/pixel)
Звук: 48.0 kHz, MP3, 2/0 ch, 128 kbps
Субтитры: нет
General
Complete name : Dzhynn.2016.XviD.WEB-DLRip.GeneralFilmSerija.01.avi
Format : AVI
Format/Info : Audio Video Interleave
File size : 373 MiB
Duration : 43mn 48s
Overall bit rate : 1 190 Kbps
Writing application : VirtualDubMod 1.5.10.3 | www.virtualdub-fr.org || (build 2550/release)
Writing library : VirtualDubMod build 2550/release
Video
ID : 0
Format : MPEG-4 Visual
Format profile : Advanced Simple@L5
Format settings, BVOP : 1
Format settings, QPel : No
Format settings, GMC : No warppoints
Format settings, Matrix : Custom
Codec ID : XVID
Codec ID/Hint : XviD
Duration : 43mn 48s
Bit rate : 1 052 Kbps
Width : 688 pixels
Height : 384 pixels
Display aspect ratio : 16:9
Frame rate : 25.000 fps
Color space : YUV
Chroma subsampling : 4:2:0
Bit depth : 8 bits
Scan type : Progressive
Compression mode : Lossy
Bits/(Pixel*Frame) : 0.159
Stream size : 330 MiB (88%)
Writing library : XviD 73
Audio
ID : 1
Format : MPEG Audio
Format version : Version 1
Format profile : Layer 3
Codec ID : 55
Codec ID/Hint : MP3
Duration : 43mn 48s
Bit rate mode : Constant
Bit rate : 128 Kbps
Channel(s) : 2 channels
Sampling rate : 48.0 KHz
Compression mode : Lossy
Stream size : 40.1 MiB (11%)
Alignment : Aligned on interleaves
Interleave, duration : 40 ms (1.00 video frame)
Interleave, preload duratio : 504 ms
Writing library : LAME3.99r
Encoding settings : -m s -V 4 -q 0 -lowpass 17 -b 128



Релиз от:



   Похожие торренты   Торрент   Размер 
В этой теме нет новых непрочитанных сообщений. Джинн [01-02 из 04] (2016) WEB-DLRip-AVC от Files-x

110 | 53

2.2 ГБ

В этой теме нет новых непрочитанных сообщений. Джинн [01-04 из 04] (2016) WEB-DLRip от Files-x

193 | 55

2.13 ГБ

В этой теме нет новых непрочитанных сообщений. Зови меня Джинн (2005) DVDRip - Generalfilm

13 | 5

1.37 ГБ

В этой теме нет новых непрочитанных сообщений. Джинн [01 из 04] (2016) SATRip-AVC от Files-x

3 | 3

509.93 МБ

В этой теме нет новых непрочитанных сообщений. Джинн [01 из 04] (2016) SATRip-AVC от Files-x

44 | 8

1.95 ГБ

В этой теме нет новых непрочитанных сообщений. Джинн [01-03 из 04] (2016) SATRip от Files-x

166 | 47

2.15 ГБ

В этой теме нет новых непрочитанных сообщений. Джинн [01-04 из 04] (2016) WEB-DL 1080p от Files-x

132 | 49

3.74 ГБ




Вы не можете начинать темы
Вы не можете отвечать на сообщения
Вы не можете редактировать свои сообщения
Вы не можете удалять свои сообщения
Вы не можете добавлять вложения

Перейти:  
Для Мосгорсуда, Роскомнадзора и рекламодателей: mosgorsud-torrent[собачка]yandex.ru
Настройки
ppkBB3cker v.2 © 2008-2014 @ PPK
[ Time : 0.023s | 16 Queries | GZIP : Off ]
CGP [Extreme] output time : 0.00063s | 0 Queries | GZIP : Off

Торрент трекер RUTOR.IN, Не можете зайти на rutor.org? Какой новый адрес рутор? Какое зеркало рутор? Не работает rutor.org и зеркала? Тогда наш торрент специально для вас. Rutor.in неофициальное зеркало rutor. В случае если у Вас заблокирован rutor или вдруг Вы не можете на него зайти, то Вы без труда сможете скачать бесплатно и без рекламы последние новинки кино, игр, сериалов и прочего у нас, на Rutor.in. Не нужно использовать прокси, чтобы зайти на рутор, достаточно воспользоваться нашим ресурсом. Все новые фильмы, игры, сериалы, книги и музыка за 2013 и 2014 годы через торрент бесплатно. Скачивайте фильмы в хорошем качестве, игры для пк, xbox, playstation без регистрации. У нас вы найдете новые Зарубежные сериалы и Русские сериалы 2013, 2014, 2015 годов. Оставайтесь с нами, качайте любимые фильмы, игры, сериалы, книги и музыку.