img image001 image001 image001 image001 image001 image001 image001 image001 image001 image001 image001 image001 image001 image001 image001

Planets Sun Sun Sun
Статистика раздачи
Автор: PriZraK | Размер: 38.96 ГБ | Добавлен: 14 ноя 2016
Раздают: 6    Качают: 0
Скачать торрент
Скачать торрент
Описание торрента

СообщениеДобавлено: 14 ноя 2016 

Название: Убийство
Оригинальное название: The Killing
Год выхода: 2011
Страна: США, Канада
Студия: KMF Films, Fuse Entertainment, Fox Television Studios
Продолжительность: 13 x ~ 45:00
Жанр: триллер, драма, криминал, детектив, ...
Режиссер: Эдвард Бьянчи, Николь Кэссел, Фил Абрахам, ...
В ролях: Мирей Инос, Юэль Киннаман, Элиас Котеас, Питер Сарсгаард, Грегг Генри, Билл Кэмпбелл, Брент Секстон, Мишель Форбс, Кристин Леман, Эрик Ладин, ...
Перевод:
- Профессиональный (многоголосный, закадровый) LostFilm
- Профессиональный (двухголосый, закадровый) Кубик в Кубе
- Авторский (одноголосый, закадровый) Сербин Юрий Владимирович
- Субтитры
О фильме: Сериал рассказывает об одном убийстве с трех точек зрения — детективов, приставленных к этому делу, семьи погибшей и подозреваемых. Сюжет также затрагивает местных политиков и их связь с этим делом. Постепенно становится ясно, что здесь нет случайностей, у каждого свой секрет. И хотя персонажи думают, что они продолжают жить дальше, их прошлое еще не оставило их в покое…

Кодек: x264
Качество: BDRip 720p
Видео: 1280x720, ~6000 kbps, 23,976 fps
Аудио #1: AC-3, 6 ch, 640 kbps (Rus) - MVO LostFilm
Аудио #2: AC-3, 6 ch, 640 kbps (Rus) - DVO Кубик в Кубе
Аудио #3: AC-3, 6 ch, 640 kbps (Rus) - AVO Сербин Юрий Владимирович
Аудио #4: DTS, 6 ch, 1509 kbps (Eng)
Субтитры: Русские, Английские
За исходники спасибо - Vlad1k_H_
- Исходные диски были приобретены - Frailty.
- Дорожка №1 получена наложением выделенного голоса на центр декодированного DTS-HD MA.
- Дорожки №2 и 3 получены наложением чистого голоса на центр декодированного DTS-HD MA.
- AC-3 сделан в Adobe Audition.
- За чистые голоса Кубик В Кубе спасибо ЛП
- За чистые голоса Юрия Сербина спасибо меценатам новафильма
- 13 серия EXTENDED. Юрий Сербин озвучил полностью. В дорожке #1, #2 на расширенные места имеются вставки Сербина.

x264 [info]: frame I:430 Avg QP:18.04 size:117570
x264 [info]: frame P:11998 Avg QP:21.02 size: 51976
x264 [info]: frame B:52973 Avg QP:22.98 size: 25958
x264 [info]: consecutive B-frames: 1.1% 0.7% 4.7% 6.6% 12.7% 62.5% 4.8% 1.4% 1.0% 1.2% 1.1% 1.2% 1.0%
Общее
Уникальный идентификатор : 220470830205535381734856603255315962829 (0xA5DD232B0D61503EB190E3AE4E651BCD)
Полное имя : The Killing E01 S01 2011 BDRip 720p LostFilm Кубик в Кубе Сербин.mkv
Формат : Matroska
Версия формата : Version 2
Размер файла : 3,00 Гбайт
Продолжительность : 45 м.
Общий поток : 9442 Кбит/сек
Дата кодирования : UTC 2016-11-08 08:56:55
Программа кодирования : mkvmerge v4.0.0 ('The Stars were mine') сборка от Jun 6 2010 16:18:42
Библиотека кодирования : libebml v1.0.0 + libmatroska v1.0.0
Видео
Идентификатор : 1
Формат : AVC
Формат/Информация : Advanced Video Codec
Профиль формата : High@L4.1
Параметр CABAC формата : Да
Параметр ReFrames формата : 9 кадров
Идентификатор кодека : V_MPEG4/ISO/AVC
Продолжительность : 45 м.
Битрейт : 6000 Кбит/сек
Ширина : 1280 пикселей
Высота : 720 пикселей
Соотношение сторон : 16:9
Режим частоты кадров : Постоянный
Частота кадров : 23,976 (24000/1001) кадра/сек
Цветовое пространство : YUV
Субдискретизация насыщенности : 4:2:0
Битовая глубина : 8 бит
Тип развёртки : Прогрессивная
Бит/(Пиксели*Кадры) : 0.272
Размер потока : 1,85 Гбайт (62%)
Библиотека кодирования : x264 core 146 r2538 121396c
Настройки программы : cabac=1 / ref=9 / deblock=1:-3:-3 / analyse=0x3:0x133 / me=umh / subme=11 / psy=1 / psy_rd=1.00:0.00 / mixed_ref=1 / me_range=32 / chroma_me=1 / trellis=2 / 8x8dct=1 / cqm=0 / deadzone=21,11 / fast_pskip=0 / chroma_qp_offset=-2 / threads=12 / lookahead_threads=2 / sliced_threads=0 / nr=0 / decimate=0 / interlaced=0 / bluray_compat=0 / constrained_intra=0 / bframes=12 / b_pyramid=2 / b_adapt=2 / b_bias=0 / direct=3 / weightb=1 / open_gop=0 / weightp=2 / keyint=240 / keyint_min=23 / scenecut=40 / intra_refresh=0 / rc=2pass / mbtree=0 / bitrate=6000 / ratetol=1.0 / qcomp=0.60 / qpmin=0 / qpmax=69 / qpstep=4 / cplxblur=20.0 / qblur=0.5 / ip_ratio=1.40 / pb_ratio=1.30 / aq=1:0.80
Язык : English
Default : Нет
Forced : Нет
Аудио #1
Идентификатор : 2
Формат : AC-3
Формат/Информация : Audio Coding 3
Расширение режима : CM (complete main)
Параметр Endianness формата : Big
Идентификатор кодека : A_AC3
Продолжительность : 45 м.
Вид битрейта : Постоянный
Битрейт : 640 Кбит/сек
Каналы : 6 каналов
Расположение каналов : Front: L C R, Side: L R, LFE
Частота : 48,0 КГц
Частота кадров : 31,250 кадров/сек (1536 spf)
Метод сжатия : С потерями
Размер потока : 208 Мбайт (7%)
Заголовок : MVO LostFilm
Язык : Russian
Default : Нет
Forced : Нет
Аудио #2
Идентификатор : 3
Формат : AC-3
Формат/Информация : Audio Coding 3
Расширение режима : CM (complete main)
Параметр Endianness формата : Big
Идентификатор кодека : A_AC3
Продолжительность : 45 м.
Вид битрейта : Постоянный
Битрейт : 640 Кбит/сек
Каналы : 6 каналов
Расположение каналов : Front: L C R, Side: L R, LFE
Частота : 48,0 КГц
Частота кадров : 31,250 кадров/сек (1536 spf)
Метод сжатия : С потерями
Размер потока : 208 Мбайт (7%)
Заголовок : DVO Кубик в Кубе
Язык : Russian
Default : Нет
Forced : Нет
Аудио #3
Идентификатор : 4
Формат : AC-3
Формат/Информация : Audio Coding 3
Расширение режима : CM (complete main)
Параметр Endianness формата : Big
Идентификатор кодека : A_AC3
Продолжительность : 45 м.
Вид битрейта : Постоянный
Битрейт : 640 Кбит/сек
Каналы : 6 каналов
Расположение каналов : Front: L C R, Side: L R, LFE
Частота : 48,0 КГц
Частота кадров : 31,250 кадров/сек (1536 spf)
Метод сжатия : С потерями
Размер потока : 208 Мбайт (7%)
Заголовок : AVO Сербин Юрий Владимирович
Язык : Russian
Default : Нет
Forced : Нет
Аудио #4
Идентификатор : 5
Формат : DTS
Формат/Информация : Digital Theater Systems
Режим : 16
Параметр Endianness формата : Big
Идентификатор кодека : A_DTS
Продолжительность : 45 м.
Вид битрейта : Постоянный
Битрейт : 1509 Кбит/сек
Каналы : 6 каналов
Расположение каналов : Front: L C R, Side: L R, LFE
Частота : 48,0 КГц
Частота кадров : 93,750 кадра/сек (512 spf)
Битовая глубина : 24 бит
Метод сжатия : С потерями
Размер потока : 491 Мбайт (16%)
Язык : English
Default : Нет
Forced : Нет
Текст #1
Идентификатор : 6
Формат : UTF-8
Идентификатор кодека : S_TEXT/UTF8
Идентификатор кодека/Информация : UTF-8 Plain Text
Язык : Russian
Default : Нет
Forced : Нет
Текст #2
Идентификатор : 7
Формат : UTF-8
Идентификатор кодека : S_TEXT/UTF8
Идентификатор кодека/Информация : UTF-8 Plain Text
Язык : English
Default : Нет
Forced : Нет





   Похожие торренты   Торрент   Размер 
В этой теме нет новых непрочитанных сообщений. Убийство / The Killing [S01] (2011) HDTVRip | Кубик в Кубе

15 | 7

5.51 ГБ

В этой теме нет новых непрочитанных сообщений. Убийство / The Killing [S02] (2012) WEB-DLRip | P2 Кубик в Кубе

4 | 3

6.11 ГБ

В этой теме нет новых непрочитанных сообщений. Убийство / The Killing [S03] (2013) WEB-DL 720p | Ю. Сербин

1 | 3

17.48 ГБ

В этой теме нет новых непрочитанных сообщений. Убийство / The Killing [03x01-09 из 12] (2013) WEB-DL 720p | Ю. Сербин

0 | 2

13.15 ГБ

В этой теме нет новых непрочитанных сообщений. Убийство / The Killing [S01] (2011) WEB-DL 720p | LostFilm

22 | 46

18.2 ГБ

В этой теме нет новых непрочитанных сообщений. Убийство / The Killing [S01-04] (2011-2014) WEB-DLRip 720p | LostFilm

64 | 358

61.82 ГБ

В этой теме нет новых непрочитанных сообщений. Во все тяжкие / Breaking Bad [S04] (2011) WEB-DL 720p | LostFilm / Кубик в Кубе DD 5.1

145 | 63

24.49 ГБ




Вы не можете начинать темы
Вы не можете отвечать на сообщения
Вы не можете редактировать свои сообщения
Вы не можете удалять свои сообщения
Вы не можете добавлять вложения

Перейти:  
Для Мосгорсуда, Роскомнадзора и рекламодателей: mosgorsud-torrent[собачка]yandex.ru
 Вход
ppkBB3cker v.2 © 2008-2014 @ PPK
[ Time : 0.124s | 17 Queries | GZIP : Off ]
CGP output time : 0.036s | 7 Queries | GZIP : Off

Торрент трекер RUTOR.IN, Не можете зайти на rutor.org? Какой новый адрес рутор? Какое зеркало рутор? Не работает rutor.org и зеркала? Тогда наш торрент специально для вас. Rutor.in неофициальное зеркало rutor. В случае если у Вас заблокирован rutor или вдруг Вы не можете на него зайти, то Вы без труда сможете скачать бесплатно и без рекламы последние новинки кино, игр, сериалов и прочего у нас, на Rutor.in. Не нужно использовать прокси, чтобы зайти на рутор, достаточно воспользоваться нашим ресурсом. Все новые фильмы, игры, сериалы, книги и музыка за 2013 и 2014 годы через торрент бесплатно. Скачивайте фильмы в хорошем качестве, игры для пк, xbox, playstation без регистрации. У нас вы найдете новые Зарубежные сериалы и Русские сериалы 2013, 2014, 2015 годов. Оставайтесь с нами, качайте любимые фильмы, игры, сериалы, книги и музыку.