img image001 image001 image001 image001 image001 image001 image001 image001 image001 image001 image001 image001 image001 image001 image001

Planets Sun Sun Sun
Статистика раздачи
Автор: PriZraK | Размер: 2.57 ГБ | Добавлен: 15 ноя 2016
Раздают: 0    Качают: 0
Скачать торрент
Скачать торрент
Описание торрента

СообщениеДобавлено: 15 ноя 2016 

Мажор 2
Сезон 2, эпизод 1 (из 12)
«Умереть, чтобы родиться»
Год выпуска: 2016
Страна: Россия
Производство: Продюсерский центр «Среда»
Жанр: Драма, криминал
Режиссёр: Николай Булыгин, Максим Полинский
В ролях: Павел Прилучный, Карина Разумовская, Дмитрий Шевченко, Денис Шведов, Александр Обласов, Никита Панфилов, Дана Абызова, Олег Гаас, Анна Цуканова-Котт, Любовь Аксёнова, Игорь Жижикин, Дмитрий Лысенков, Анна Вартанян, Вера Брежнева, Эмилия Спивак, Вадим Лымарь, Алла Еминцева, Виктор Цекало, Галина Сидорова, Константин Фисенко, Сергей Сафронов, Кира Кауфман
Перевод: Не требуется
Субтитры: Нет
Реклама: Отсутствует
Описание: Неожиданно для всех Игоря Соколовского выпускают из СИЗО, сняв все обвинения в покушении на жизнь бизнесмена Игнатьева. Но Мажор выходит с одним-единственным желанием — отомстить, так как он считает Игнатьева виновным в смерти отца и матери. Соколовский возвращается на службу в полицию, возглавляет бизнес отца, который перешел ему по наследству, заводит красивый и яркий роман с Катей. Мучается из-за отношений с Викой — они так и не смогли забыть друг друга. И день за днем торопит развязку — уничтожение Игнатьева. Но что будет после того, как цель достигнута? После того, как придется посмотреть на победу с другой стороны…
1 серия.
Игоря Соколовского неожиданно выпускают из СИЗО. Дело о покушении на олигарха Игнатьева закрыто, Мажор возвращается на службу в полицию. Вступив в наследство отца, он планирует финансовую интригу против Игнатьева. Неизвестный оставляет Мажору странное послание. Знакомство с Катей помогает Соколовскому не думать о Вике. Даня в ярости: Вика якобы из-за болезни сестры Ани откладывает их свадьбу.
2 серия.
Отдел Вики расследует несчастный случай: девушка выпала из окна шестнадцатого этажа, делая селфи. Мажор находит доказательства, что падение не было случайностью. Игорь и Даня узнают, что лечение Ани требует больших денег, но Вика отказывается от любой помощи. Катя устраивает Мажору сюрприз, развязка которого сильно настораживает.


Качество: HDTV 1080i
Продолжительность: по ~ 00:47:00
Формат: ts
Видео кодек: MPEG-4 AVC
Аудио кодек: АС3, МР2
Свойства видео: 1920x1080 (16:9), 25 fps, MPEG-4 AVC ~6 624 kbps avg, 0.128 bit/pixel
Свойства аудио: 48 kHz, AC3, 6 ch, ~384.00 kbps avg
Свойства аудио: 48 kHz, МР2, 2 ch, ~192.00 kbps avg
Mazhor.s2.01.HDTV1080.ts
Format : MPEG-TS
File size : 2.57 GiB
Duration : 48mn 27s
Overall bit rate mode : Variable
Overall bit rate : 7 580 Kbps
Video
ID : 1904 (0x770)
Menu ID : 904 (0x388)
Format : AVC
Format/Info : Advanced Video Codec
Format profile : High@L4
Format settings, CABAC : Yes
Format settings, ReFrames : 3 frames
Format settings, GOP : M=4, N=32
Codec ID : 27
Duration : 48mn 27s
Bit rate : 6 624 Kbps
Width : 1 920 pixels
Height : 1 080 pixels
Display aspect ratio : 16:9
Frame rate : 25.000 fps
Standard : Component
Color space : YUV
Chroma subsampling : 4:2:0
Bit depth : 8 bits
Scan type : Interlaced
Scan order : Top Field First
Bits/(Pixel*Frame) : 0.128
Stream size : 2.24 GiB (87%)
Color range : Limited
Color primaries : BT.709
Transfer characteristics : BT.709
Matrix coefficients : BT.709
Audio #1
ID : 2904 (0xB58)
Menu ID : 904 (0x388)
Format : AC-3
Format/Info : Audio Coding 3
Mode extension : CM (complete main)
Format settings, Endianness : Big
Codec ID : 6
Duration : 48mn 27s
Bit rate mode : Constant
Bit rate : 384 Kbps
Channel(s) : 6 channels
Channel positions : Front: L C R, Side: L R, LFE
Sampling rate : 48.0 KHz
Bit depth : 16 bits
Compression mode : Lossy
Stream size : 133 MiB (5%)
Language : Russian
Audio #2
ID : 2905 (0xB59)
Menu ID : 904 (0x388)
Format : MPEG Audio
Format version : Version 1
Format profile : Layer 2
Codec ID : 3
Duration : 48mn 27s
Bit rate mode : Constant
Bit rate : 192 Kbps
Channel(s) : 2 channels
Sampling rate : 48.0 KHz
Compression mode : Lossy
Stream size : 66.5 MiB (3%)

При каждом добавлении создаётся новый торрент. Чтобы начать докачку новой серии, пользователям необходимо сделать следующее:
(1) остановить скачивание,
(2) удалить старый торрент у себя из клиента (старые серии удалять не надо),
(3) скачать новый торрент и запустить его у себя в клиенте вместо старого, при этом указать клиенту путь в старую папку куда и должно происходить скачивание новых серий.
Ваш клиент при этом должен произвести хеширование (проверку) старой папки (если не производит сам - помогите ему сделать это), и будет докачивать только те серии которых у вас ещё нет. Старые серии при этом не удаляются, а продолжают раздаваться!
Eсли вы уже удалили старые серии, то предотвратить повторную закачку старых серий можно, отжав галочку в соответствующих местах при запуске нового торрента. По возможности, желательно не удалять старые серии как можно дольше чтобы релизёр не столько продолжал раздавать старые серии, а смог сконцентрироваться на новых.





   Похожие торренты   Торрент   Размер 
В этой теме нет новых непрочитанных сообщений. Мажор - 2 [01-02 из 12] (2016) HDTV 1080i от GeneralFilm

4 | 0

9.61 ГБ

В этой теме нет новых непрочитанных сообщений. Мажор - 2 [01-02 из 12] (2016) HDTV 1080i от GeneralFilm

0 | 0

4.99 ГБ

В этой теме нет новых непрочитанных сообщений. Мажор - 2 [01-02 из 12] (2016) HDTV 1080i от GeneralFilm

2 | 1

14.26 ГБ

В этой теме нет новых непрочитанных сообщений. Мажор [01-02 из 12] (2014) HDTV 1080i от MediaClub

220 | 124

25.5 ГБ

В этой теме нет новых непрочитанных сообщений. Мажор [01-02 из 12] (2014) HDTV 1080i от MediaClub

101 | 69

18.44 ГБ

В этой теме нет новых непрочитанных сообщений. Мажор [01-12 из 12] (2014) HDTV 1080i от MediaClub

607 | 415

40.62 ГБ

В этой теме нет новых непрочитанных сообщений. Мажор [01-02 из 12] (2014) HDTV 1080i от MediaClub

81 | 29

5.47 ГБ




Вы не можете начинать темы
Вы не можете отвечать на сообщения
Вы не можете редактировать свои сообщения
Вы не можете удалять свои сообщения
Вы не можете добавлять вложения

Перейти:  
Для Мосгорсуда, Роскомнадзора и рекламодателей: mosgorsud-torrent[собачка]yandex.ru
 Вход
ppkBB3cker v.2 © 2008-2014 @ PPK
[ Time : 0.059s | 19 Queries | GZIP : Off ]

cron