img image001 image001 image001 image001 image001 image001 image001 image001 image001 image001 image001 image001 image001 image001 image001

Planets Sun Sun Sun
Статистика раздачи
Автор: PriZraK | Размер: 1.45 ГБ | Добавлен: 17 ноя 2016
Раздают: 13    Качают: 5
Скачать торрент
Скачать торрент
Описание торрента

СообщениеДобавлено: 17 ноя 2016 


Информация о фильме
Оригинальное название: Черная кошка
Год выпуска: 2016
Жанр: История, криминал
Режиссер: Антон Сиверс
В ролях: Мария Андреева, Игорь Петренко, Гела Месхи, Дмитрий Соломыкин, Константин Лавроненко, Екатерина Гусева, Александр Лобанов (III), Виталий Герасимов, Иван Щенин, Алексей Шевченков, Юрий Чурсин, Юлия Галкина, Марина Доможирова, Вера Шпак, Анна Гарнова, Илья Бледный, Наталья Карпунина, Елена Цыплакова, Семён Шемес, Игорь Скрипко, Александр Зельский, Савелий Плескач, Екатерина Травова, Иван Соловьёв (III), Дмитрий Поднозов, Денис Васильев, Денис Сухомлинов, Наталья Зингер, Яков Шамшин, Михаил Боярский, Сергей Юшкевич, Алексей Шемес, Сергей Подольный, Алла Миронова, Сергей Вершинин, Андрей Зайков, Александр Ершов, Денис Дружинин, Георгий Тополага, Юрий Цурило, Кирилл Полухин, Александр Обласов, Владимир Чуприков, Денис Ясик, Анатолий Завьялов
О фильме:
Жестокая, таинственная и неуловимая банда «Черная кошка» из культового советского фильма «Место встречи изменить нельзя», действительно, существовала. Более того, она была не одна. Их называли по-разному: «банда Митина», «Красногорские оборотни», «Черная кошка». Бандиты вышли на улицы Москвы прямо с Доски почёта оборонного завода Красногорска. Это были молодые парни — спортсмены, комсомольцы, ударники труда — лучшие представители передовой советской молодежи. Но это все днем… А ночью эти «передовые» ребята совершали дерзкие налеты, грабежи и убийства, несколько лет державшие в страхе всю страну. Их видели в лицо, их знали по именам, но никак не могли поймать, потому что никому не приходило в голову искать бандитов в рядах образцово-показательных комсомольцев

Страна: Россия
Студия: Кинокомпания «Русское»
Продолжительность: 2 x ~ 00:50:00
Перевод: Не требуется
Файл
Формат: avi
Качество: HDTVRip
Видео: XviD build 73, 656x368 (16:9), 25.000 fps, ~ 950 Kbps (~ 0.155 bit/pixel)
Звук: 48.0 kHz, MP3, 2/0 ch, 128 kbps
Субтитры: нет
General
Complete name : Chernaja.Koshka.2016.XviD.WEB-DLRip.GeneralFilmSerija.02.avi
Format : AVI
Format/Info : Audio Video Interleave
File size : 372 MiB
Duration : 47mn 56s
Overall bit rate : 1 085 Kbps
Writing application : VirtualDubMod 1.5.10.3 | www.virtualdub-fr.org || (build 2550/release)
Writing library : VirtualDubMod build 2550/release
Video
ID : 0
Format : MPEG-4 Visual
Format profile : Advanced Simple@L5
Format settings, BVOP : 1
Format settings, QPel : No
Format settings, GMC : No warppoints
Format settings, Matrix : Custom
Codec ID : XVID
Codec ID/Hint : XviD
Duration : 47mn 56s
Bit rate : 948 Kbps
Width : 656 pixels
Height : 368 pixels
Display aspect ratio : 16:9
Frame rate : 25.000 fps
Color space : YUV
Chroma subsampling : 4:2:0
Bit depth : 8 bits
Scan type : Progressive
Compression mode : Lossy
Bits/(Pixel*Frame) : 0.157
Stream size : 325 MiB (87%)
Writing library : XviD 73
Audio
ID : 1
Format : MPEG Audio
Format version : Version 1
Format profile : Layer 3
Codec ID : 55
Codec ID/Hint : MP3
Duration : 47mn 56s
Bit rate mode : Constant
Bit rate : 128 Kbps
Channel(s) : 2 channels
Sampling rate : 48.0 KHz
Compression mode : Lossy
Stream size : 43.9 MiB (12%)
Alignment : Aligned on interleaves
Interleave, duration : 40 ms (1.00 video frame)
Interleave, preload duratio : 504 ms
Writing library : LAME3.99r
Encoding settings : -m s -V 4 -q 0 -lowpass 17 -b 128




Релиз от:



   Похожие торренты   Торрент   Размер 
В этой теме нет новых непрочитанных сообщений. Черная кошка [01-02 из 16] (2016) WEB-DLRip от GeneralFilm

13 | 1

2.18 ГБ

В этой теме нет новых непрочитанных сообщений. Черная кошка [01-02 из 16] (2016) WEB-DLRip от GeneralFilm

13 | 0

744.25 МБ

В этой теме нет новых непрочитанных сообщений. Черная кошка [01-10 из 16] (2016) WEB-DLRip-AVC от ExKinoRay

42 | 69

6.69 ГБ

В этой теме нет новых непрочитанных сообщений. Черная кошка [01-04 из 16] (2016) WEB-DLRip от Kaztorrents | КПК

16 | 4

1.82 ГБ

В этой теме нет новых непрочитанных сообщений. Черная кошка [01-06 из 16] (2016) WEB-DLRip-AVC от ExKinoRay

29 | 12

4.03 ГБ

В этой теме нет новых непрочитанных сообщений. Черная кошка [01-04 из 16] (2016) WEB-DLRip от Kaztorrents | КПК

62 | 13

2.42 ГБ

В этой теме нет новых непрочитанных сообщений. Черная кошка [01-08 из 16] (2016) WEB-DLRip-AVC от ExKinoRay

106 | 64

5.35 ГБ




Вы не можете начинать темы
Вы не можете отвечать на сообщения
Вы не можете редактировать свои сообщения
Вы не можете удалять свои сообщения
Вы не можете добавлять вложения

Перейти:  
Для Мосгорсуда, Роскомнадзора и рекламодателей: mosgorsud-torrent[собачка]yandex.ru
 Вход
ppkBB3cker v.2 © 2008-2014 @ PPK
[ Time : 0.027s | 14 Queries | GZIP : Off ]

Торрент трекер RUTOR.IN, Не можете зайти на rutor.org? Какой новый адрес рутор? Какое зеркало рутор? Не работает rutor.org и зеркала? Тогда наш торрент специально для вас. Rutor.in неофициальное зеркало rutor. В случае если у Вас заблокирован rutor или вдруг Вы не можете на него зайти, то Вы без труда сможете скачать бесплатно и без рекламы последние новинки кино, игр, сериалов и прочего у нас, на Rutor.in. Не нужно использовать прокси, чтобы зайти на рутор, достаточно воспользоваться нашим ресурсом. Все новые фильмы, игры, сериалы, книги и музыка за 2013 и 2014 годы через торрент бесплатно. Скачивайте фильмы в хорошем качестве, игры для пк, xbox, playstation без регистрации. У нас вы найдете новые Зарубежные сериалы и Русские сериалы 2013, 2014, 2015 годов. Оставайтесь с нами, качайте любимые фильмы, игры, сериалы, книги и музыку.