img image001 image001 image001 image001 image001 image001 image001 image001 image001 image001 image001 image001 image001 image001 image001

Planets Sun Sun Sun
Статистика раздачи
Автор: PriZraK | Размер: 19.65 ГБ | Добавлен: 19 ноя 2016
Раздают: 15    Качают: 9
Скачать торрент
Скачать торрент
Описание торрента

СообщениеДобавлено: 19 ноя 2016 

Название: Темное дитя
Оригинальное название: Orphan Black
Год выхода: 2015
Страна: Канада
Студия: Temple Street Productions
Продолжительность: 10 x ~ 41:00
Жанр: фантастика, боевик, драма
Режиссер: Джон Фоусет, Дэвид Фрэйзи, Кен Джиротти, ...
В ролях: Татьяна Маслани, Джордан Джаварис, Дилан Брюс, Скайлер Уэкслер, Мария Дойл Кеннеди, Кевин Ханчард, Инга Кадранел, Рон Лиа, Майкл Мэндо, Дрю Дэвис, ...
Перевод: Любительский (многоголосный, закадровый) BaibaKo
О фильме: Сара — сирота, которой выпало перенести немало лишений в жизни. Лишенная родительской любви и заботы, Сара чувствует себя отрешенной от этого мира, в котором, как ей кажется, она никому не нужна. Нет ни единого человека, который бы заботился о ней. Но вот и без того нерадостная жизнь девушки однажды омрачается одним трагическим происшествием. Сара невольно становится свидетельницей того, как молодая женщина накладывает на себя руки. Самое страшное — покойная пугающе похожа на саму Сару. Сара совершает странный поступок — она заменяет собой погибшую, выдав себя за неё. Но это становится началом ряда несчастливых событий, которые лишь добавляют Саре проблем. Но на этом не заканчивается. Сара понимает, что она и погибшая не только невероятно похожи друг на друга…

Кодек: x264
Качество: BDRip 720p
Видео: 1280x720, ~5900 kbps, 25 fps
Аудио #1: AC-3, 6 ch, 384 kbps (Rus) - BaibaKo
Аудио #2: AC-3, 6 ch, 384 kbps (Eng)
Субтитры: Английские
Общее
Уникальный идентификатор : 243907910688348380587282487860564321929 (0xB77EF47375752DF0B47EEEE18A17E689)
Полное имя : Orphan Black E01 S03 2015 BDRip 720p BaibaKo.mkv
Формат : Matroska
Версия формата : Version 2
Размер файла : 1,97 Гбайт
Продолжительность : 41 м.
Общий поток : 6739 Кбит/сек
Дата кодирования : UTC 2016-11-16 13:12:20
Программа кодирования : mkvmerge v4.0.0 ('The Stars were mine') сборка от Jun 6 2010 16:18:42
Библиотека кодирования : libebml v1.0.0 + libmatroska v1.0.0
Видео
Идентификатор : 1
Формат : AVC
Формат/Информация : Advanced Video Codec
Профиль формата : High@L4.1
Параметр CABAC формата : Да
Параметр ReFrames формата : 5 кадров
Идентификатор кодека : V_MPEG4/ISO/AVC
Продолжительность : 41 м.
Битрейт : 5970 Кбит/сек
Ширина : 1280 пикселей
Высота : 720 пикселей
Соотношение сторон : 16:9
Режим частоты кадров : Постоянный
Частота кадров : 25,000 кадров/сек
Цветовое пространство : YUV
Субдискретизация насыщенности : 4:2:0
Битовая глубина : 8 бит
Тип развёртки : Прогрессивная
Бит/(Пиксели*Кадры) : 0.259
Размер потока : 1,70 Гбайт (87%)
Библиотека кодирования : x264 core 144 r2525 40bb568
Настройки программы : cabac=1 / ref=5 / deblock=1:0:0 / analyse=0x3:0x133 / me=umh / subme=7 / psy=1 / psy_rd=1.00:0.00 / mixed_ref=1 / me_range=16 / chroma_me=1 / trellis=1 / 8x8dct=1 / cqm=0 / deadzone=21,11 / fast_pskip=0 / chroma_qp_offset=-2 / threads=30 / lookahead_threads=5 / sliced_threads=0 / nr=0 / decimate=1 / interlaced=0 / bluray_compat=0 / constrained_intra=0 / bframes=3 / b_pyramid=2 / b_adapt=1 / b_bias=0 / direct=1 / weightb=1 / open_gop=0 / weightp=2 / keyint=250 / keyint_min=25 / scenecut=40 / intra_refresh=0 / rc_lookahead=40 / rc=2pass / mbtree=1 / bitrate=5970 / ratetol=1.0 / qcomp=0.60 / qpmin=0 / qpmax=69 / qpstep=4 / cplxblur=20.0 / qblur=0.5 / ip_ratio=1.40 / aq=1:1.00
Язык : English
Default : Нет
Forced : Нет
Аудио #1
Идентификатор : 2
Формат : AC-3
Формат/Информация : Audio Coding 3
Расширение режима : CM (complete main)
Параметр Endianness формата : Big
Идентификатор кодека : A_AC3
Продолжительность : 41 м.
Вид битрейта : Постоянный
Битрейт : 384 Кбит/сек
Каналы : 6 каналов
Расположение каналов : Front: L C R, Side: L R, LFE
Частота : 48,0 КГц
Частота кадров : 31,250 кадров/сек (1536 spf)
Метод сжатия : С потерями
Размер потока : 115 Мбайт (6%)
Заголовок : BaibaKo
Язык : Russian
Default : Нет
Forced : Нет
Аудио #2
Идентификатор : 3
Формат : AC-3
Формат/Информация : Audio Coding 3
Расширение режима : CM (complete main)
Параметр Endianness формата : Big
Идентификатор кодека : A_AC3
Продолжительность : 41 м.
Вид битрейта : Постоянный
Битрейт : 384 Кбит/сек
Каналы : 6 каналов
Расположение каналов : Front: L C R, Side: L R, LFE
Частота : 48,0 КГц
Частота кадров : 31,250 кадров/сек (1536 spf)
Метод сжатия : С потерями
Размер потока : 115 Мбайт (6%)
Язык : English
Default : Нет
Forced : Нет
Текст
Идентификатор : 4
Формат : UTF-8
Идентификатор кодека : S_TEXT/UTF8
Идентификатор кодека/Информация : UTF-8 Plain Text
Язык : English
Default : Нет
Forced : Нет





   Похожие торренты   Торрент   Размер 
В этой теме нет новых непрочитанных сообщений. Темное дитя / Orphan Black [S03] (2015) BDRip | BaiBaKo

43 | 4

5.49 ГБ

В этой теме нет новых непрочитанных сообщений. Темное дитя / Orphan Black [S04] (2016) BDRip 720p | BaiBaKo, IdeaFilm

1 | 0

20.92 ГБ

В этой теме нет новых непрочитанных сообщений. Темное дитя / Orphan Black [S01] (2013) BDRip 720p от MediaClub | BaibaKo, To4ka

5 | 12

21.88 ГБ

В этой теме нет новых непрочитанных сообщений. Темное дитя / Orphan Black [S02] (2014) BDRip 720p от MediaClub | BaibaKo, To4ka

18 | 26

23.3 ГБ

В этой теме нет новых непрочитанных сообщений. Темное дитя / Orphan Black [S04] (2016) WEB-DL 720p | BaibaKo

19 | 1

14.82 ГБ

В этой теме нет новых непрочитанных сообщений. Тёмное дитя / Orphan Black [S02] (2014) WEB-DL 720p | BaibaKo

243 | 164

13.94 ГБ

В этой теме нет новых непрочитанных сообщений. Тёмное дитя / Orphan Black [S01] (2013) WEB-DL 720p | BaibaKo

32 | 21

14.32 ГБ




Вы не можете начинать темы
Вы не можете отвечать на сообщения
Вы не можете редактировать свои сообщения
Вы не можете удалять свои сообщения
Вы не можете добавлять вложения

Перейти:  
Для Мосгорсуда, Роскомнадзора и рекламодателей: mosgorsud-torrent[собачка]yandex.ru
 Вход
ppkBB3cker v.2 © 2008-2014 @ PPK
[ Time : 0.044s | 15 Queries | GZIP : Off ]

Торрент трекер RUTOR.IN, Не можете зайти на rutor.org? Какой новый адрес рутор? Какое зеркало рутор? Не работает rutor.org и зеркала? Тогда наш торрент специально для вас. Rutor.in неофициальное зеркало rutor. В случае если у Вас заблокирован rutor или вдруг Вы не можете на него зайти, то Вы без труда сможете скачать бесплатно и без рекламы последние новинки кино, игр, сериалов и прочего у нас, на Rutor.in. Не нужно использовать прокси, чтобы зайти на рутор, достаточно воспользоваться нашим ресурсом. Все новые фильмы, игры, сериалы, книги и музыка за 2013 и 2014 годы через торрент бесплатно. Скачивайте фильмы в хорошем качестве, игры для пк, xbox, playstation без регистрации. У нас вы найдете новые Зарубежные сериалы и Русские сериалы 2013, 2014, 2015 годов. Оставайтесь с нами, качайте любимые фильмы, игры, сериалы, книги и музыку.