img image001 image001 image001 image001 image001 image001 image001 image001 image001 image001 image001 image001 image001 image001 image001

Planets Sun Sun Sun
Статистика раздачи
Автор: Nickolas3434 | Размер: 6.65 ГБ | Добавлен: 19 ноя 2016
Раздают: 27    Качают: 2
Скачать торрент
Скачать торрент
Описание торрента

СообщениеДобавлено: 19 ноя 2016 

МосГаз
Эпизод с 1 по 8 (из 8)
«Настоящая история легендарной банды»
Год выпуска: 2012
Страна: Россия
Производство: Русский Проект
Жанр: Детектив
Режиссёр: Андрей Малюков
В ролях: Анатолий Кузнецов, Марина Александрова, Агния Кузнецова, Андрей Смоляков, Светлана Ходченкова, Юрий Чурсин, Максим Матвеев, Александр Андриенко, Денис Курочка, Иван Оранский, Илья Бутковский, Александр Мякушко, Юрий Воробьёв, Юрий Тарасов, Семён Трескунов, Андрей Якимов
Перевод: Не требуется
Субтитры: Нет
Реклама: Отсутствует
Описание: 1962 год. Москва. Владимир Ионесян, по кличке Мосгаз, стал первым официально признанным серийным маньяком в Советском Союзе. Его кровавые деяния навсегда вошли в историю криминалистики, а его прозвищем мамы пугали детей. Представляясь работником Мосгаза, маньяк свободно проникал в квартиры людей, выбирал жертву и оценивал благосостояние хозяев квартир. Позже следствие докажет причастность Мосгаза к шести убийствам, в том числе на его совести четыре смерти несовершеннолетних граждан СССР. Мало кто знает, что все свои преступления Мосгаз посвятил юной артистке кордебалета. Он убивал с легкостью, словно играл роль. По приказу Хрущева на поимку серийного убийцы отводилось две недели. Приказ был выполнен в срок. Что двигало преступником: жажда наживы, несчастная любовь или болезненное стремление убивать?


Качество: WEB-DLRip-AVC
Продолжительность: 8 х 00:59:00
Формат: MKV
Видео кодек: MPEG-4 AVC
Аудио кодек: АС3
Свойства видео: 1024x576 (16:9), 25 fps, MPEG-4 AVC ~1 800 kbps avg, 0.122 bit/pixel
Свойства аудио: 48 KHz, AC3, 2 ch, ~192.00 kbps avg

Общее
Уникальный идентификатор : 199631601786029274953053636833858039966 (0x962FA5E187C5CA0DBD9C36EEC480309E)
Полное имя : D:MosGaz.2012.WEB-DLRip(AVC).ExKinoRayMosGaz.(01.seriya).2012.WEB-DLRip(AVC).ExKinoRay.mkv
Формат : Matroska
Версия формата : Version 2
Размер файла : 1,18 Гбайт
Продолжительность : 1 ч. 24 м.
Общий поток : 1993 Кбит/сек
Дата кодирования : UTC 2016-11-16 09:39:51
Программа кодирования : mkvmerge v7.8.0 ('River Man') 32bit built on Apr 3 2015 12:11:22
Библиотека кодирования : libebml v1.3.1 + libmatroska v1.4.2
Видео
Идентификатор : 1
Формат : AVC
Формат/Информация : Advanced Video Codec
Профиль формата : High@L4.1
Параметр CABAC формата : Да
Параметр ReFrames формата : 10 кадров
Идентификатор кодека : V_MPEG4/ISO/AVC
Продолжительность : 1 ч. 24 м.
Битрейт : 1800 Кбит/сек
Ширина : 1024 пикселя
Высота : 576 пикселей
Соотношение сторон : 16:9
Режим частоты кадров : Постоянный
Частота кадров : 25,000 кадров/сек
Цветовое пространство : YUV
Субдискретизация насыщенности : 4:2:0
Битовая глубина : 8 бит
Тип развёртки : Прогрессивная
Бит/(Пиксели*Кадры) : 0.122
Размер потока : 1,04 Гбайт (88%)
Библиотека кодирования : x264 core 146 r2538 121396c
Настройки программы : cabac=1 / ref=10 / deblock=1:-3:-3 / analyse=0x3:0x133 / me=umh / subme=10 / psy=1 / psy_rd=1.00:0.03 / mixed_ref=1 / me_range=48 / chroma_me=1 / trellis=2 / 8x8dct=1 / cqm=0 / deadzone=21,11 / fast_pskip=0 / chroma_qp_offset=-3 / threads=6 / lookahead_threads=1 / sliced_threads=0 / nr=0 / decimate=0 / interlaced=0 / bluray_compat=0 / constrained_intra=0 / bframes=10 / b_pyramid=2 / b_adapt=2 / b_bias=0 / direct=3 / weightb=1 / open_gop=0 / weightp=2 / keyint=240 / keyint_min=24 / scenecut=40 / intra_refresh=0 / rc_lookahead=40 / rc=2pass / mbtree=0 / bitrate=1800 / ratetol=1.0 / qcomp=0.60 / qpmin=0 / qpmax=69 / qpstep=4 / cplxblur=20.0 / qblur=0.5 / vbv_maxrate=50000 / vbv_bufsize=62500 / nal_hrd=none / filler=0 / ip_ratio=1.40 / pb_ratio=1.30 / aq=1:1.00
Default : Да
Forced : Нет
Аудио
Идентификатор : 2
Формат : AC-3
Формат/Информация : Audio Coding 3
Расширение режима : CM (complete main)
Параметр Endianness формата : Big
Идентификатор кодека : A_AC3
Продолжительность : 1 ч. 24 м.
Вид битрейта : Постоянный
Битрейт : 192 Кбит/сек
Каналы : 2 канала
Расположение каналов : Front: L R
Частота : 48,0 КГц
Битовая глубина : 16 бит
Метод сжатия : С потерями
Размер потока : 117 Мбайт (10%)
Default : Да
Forced : Нет






   Похожие торренты   Торрент   Размер 
В этой теме нет новых непрочитанных сообщений. МосГаз [01-06 из 08] (2012) WEB-DLRip от ExKinoRay

0 | 0

4.54 ГБ

В этой теме нет новых непрочитанных сообщений. МосГаз [01 из 08] (2012) WEB-DLRip-AVC от ExKinoRay

0 | 0

1.18 ГБ

В этой теме нет новых непрочитанных сообщений. МосГаз [01-06 из 08] (2012) WEB-DLRip от ExKinoRay

1 | 0

6.3 ГБ

В этой теме нет новых непрочитанных сообщений. МосГаз [01-08 из 08] (2012) WEB-DL 1080p от ExKinoRay

9 | 0

16.69 ГБ

В этой теме нет новых непрочитанных сообщений. МосГаз [01-02 из 08] (2012) HDTVRip-AVC

2 | 4

2.59 ГБ

В этой теме нет новых непрочитанных сообщений. МосГаз [01-02 из 08] (2012) HDTVRip-AVC

37 | 9

1.47 ГБ

В этой теме нет новых непрочитанных сообщений. МосГаз [01-08 из 08] (2012) SATRip-AVC

324 | 18

7.1 ГБ




Вы не можете начинать темы
Вы не можете отвечать на сообщения
Вы не можете редактировать свои сообщения
Вы не можете удалять свои сообщения
Вы не можете добавлять вложения

Перейти:  
Для Мосгорсуда, Роскомнадзора и рекламодателей: mosgorsud-torrent[собачка]yandex.ru
 Вход
ppkBB3cker v.2 © 2008-2014 @ PPK
[ Time : 0.054s | 16 Queries | GZIP : Off ]

cron