img image001 image001 image001 image001 image001 image001 image001 image001 image001 image001 image001 image001 image001 image001 image001

Planets Sun Sun Sun
Статистика раздачи
Автор: Nickolas3434 | Размер: 14.3 ГБ | Добавлен: 20 ноя 2016
Раздают: 2    Качают: 4
Скачать торрент
Скачать торрент
Описание торрента

СообщениеДобавлено: 20 ноя 2016 


Информация о фильме
Оригинальное название: Глухарь
Год выхода: 2010
Жанр: Детектив, драма
Режиссер: Тимур Алпатов, Максим Аверин
В ролях: Максим Аверин, Денис Рожков, Владислав Котлярский, Виктория Тарасова, Владимир Фекленко, Мария Болтнева, Мария Рассказова, Александр Воробьёв (II), Елена Коллегова, Анжелика Кошевая, Фёдор Румянцев, Денис Жариков, Виктория Герасимова, Андрей Козлов, Александр Расстригин, Александр Андриенко, Ася Калинина, Алексей Лапшин (I), Сергей Марухин, Владимир Мельников, Владислав Шкляев, Янис Политов, Василий Шевелилкин, Елена Доронина (III), Валерия Приходченко, Эдуард Рябинин, Наталья Самсонова
О фильме:
Третий сезон «Глухаря» ещё ярче и четче обрисует образы полюбившихся нам героев. Сергей Глухарев уже в звании майора занимает должность начальника следственного отдела сталкиваясь с целым рядом новых служебных проблем. Его друг Денис Антошин наоборот увязает в проблемах личных. Как всегда они могут рассчитывать только на помощь друг друга. Мы увидим развитие отношений Сергея и его начальницы Ирины Зиминой, а также Дениса и его девушки Насти. Новые шаги сделает в своей жизни и Коля Тарасов. С неожиданной стороны раскроется начальник СКМ Стас Карпов. «Глухарь 3» — это непридуманная жизнь, такая, какой ее видит каждый из нас.

Страна: Россия
Студия: DIXI-TV
Продолжительность: 64 х ~ 00:48:00, 1 x 1:36:03
Перевод: Не требуется
Файл
Формат: MP4
Качество: WEB-DLRip | КПК
Видео: MPEG-4 AVC (x264), 640x360, ~500 kbps, 23.976 fps
Аудио: AAC LC, 48.0 KHz, 2 ch, 128 Kbps
Субтитры: Нет
Семпл

Complete name : E:KinoGluhar'.S03.2010-2011.AVC.WEB-DLRip.KPK.GFGluhar'.s03e53.2010.AVC.WEB-DLRip.KPK.GF.mp4
Format : MPEG-4
Codec ID : M4V (isom/iso2/avc1)
File size : 209 MiB
Duration : 46mn 11s
Overall bit rate mode : Variable
Overall bit rate : 633 Kbps
Writing application : Lavf53.19.0
Video
ID : 1
Format : AVC
Format/Info : Advanced Video Codec
Format profile : High@L4.1
Format settings, CABAC : Yes
Format settings, ReFrames : 8 frames
Codec ID : avc1
Codec ID/Info : Advanced Video Coding
Duration : 46mn 11s
Bit rate : 500 Kbps
Width : 640 pixels
Height : 360 pixels
Display aspect ratio : 16:9
Frame rate mode : Constant
Frame rate : 23.976 (23976/1000) fps
Color space : YUV
Chroma subsampling : 4:2:0
Bit depth : 8 bits
Scan type : Progressive
Bits/(Pixel*Frame) : 0.091
Stream size : 165 MiB (79%)
Writing library : x264 core 146 r2538 121396c
Encoding settings : cabac=1 / ref=8 / deblock=1:-2:-2 / analyse=0x3:0x133 / me=umh / subme=10 / psy=1 / psy_rd=1.00:0.00 / mixed_ref=1 / me_range=24 / chroma_me=1 / trellis=2 / 8x8dct=1 / cqm=0 / deadzone=21,11 / fast_pskip=1 / chroma_qp_offset=-2 / threads=12 / lookahead_threads=2 / sliced_threads=0 / nr=0 / decimate=0 / interlaced=0 / bluray_compat=0 / constrained_intra=0 / bframes=8 / b_pyramid=2 / b_adapt=2 / b_bias=0 / direct=3 / weightb=1 / open_gop=0 / weightp=2 / keyint=240 / keyint_min=121 / scenecut=40 / intra_refresh=0 / rc_lookahead=40 / rc=2pass / mbtree=1 / bitrate=500 / ratetol=1.0 / qcomp=0.60 / qpmin=0 / qpmax=69 / qpstep=4 / cplxblur=20.0 / qblur=0.5 / ip_ratio=1.40 / aq=1:1.00
Menus : 3
Audio
ID : 2
Format : AAC
Format/Info : Advanced Audio Codec
Format profile : LC
Codec ID : 40
Duration : 46mn 11s
Bit rate mode : Variable
Bit rate : 128 Kbps
Channel(s) : 2 channels
Channel positions : Front: L R
Sampling rate : 48.0 KHz
Frame rate : 46.875 fps (1024 spf)
Compression mode : Lossy
Stream size : 42.3 MiB (20%)
Default : Yes
Alternate group : 1
Menus : 3

Релиз от:



   Похожие торренты   Торрент   Размер 
В этой теме нет новых непрочитанных сообщений. Глухарь [S02 + Глухарь. Приходи, Новый Год!] (2009) WEB-DLRip от Generalfilm | КПК

4 | 0

10.84 ГБ

В этой теме нет новых непрочитанных сообщений. Глухарь: "Снова Новый!" (2010) SATRip

70 | 3

1.36 ГБ

В этой теме нет новых непрочитанных сообщений. Глухарь. Снова Новый! (2010) SATRip | SVAT

40 | 8

1.37 ГБ

В этой теме нет новых непрочитанных сообщений. Глухарь 2 [S02] + Глухарь. Приходи, Новый Год! (2009) DVDRip

89 | 92

18.07 ГБ

В этой теме нет новых непрочитанных сообщений. Глухарь. "Снова Новый!" (2010) SATRip-AVC от FireBit

9 | 6

918.47 МБ

В этой теме нет новых непрочитанных сообщений. Глухарь [01-48 из 48] (2008) WEB-DLRip от Generalfilm | КПК

156 | 137

9.25 ГБ

В этой теме нет новых непрочитанных сообщений. Глухарь [S01] (2008) WEB-DLRip от Generalfilm | КПК

15 | 15

10.43 ГБ




Вы не можете начинать темы
Вы не можете отвечать на сообщения
Вы не можете редактировать свои сообщения
Вы не можете удалять свои сообщения
Вы не можете добавлять вложения

Перейти:  
Для Мосгорсуда, Роскомнадзора и рекламодателей: mosgorsud-torrent[собачка]yandex.ru
 Вход
ppkBB3cker v.2 © 2008-2014 @ PPK
[ Time : 1.374s | 14 Queries | GZIP : Off ]
CGP output time : 0.032s | 5 Queries | GZIP : Off

Торрент трекер RUTOR.IN, Не можете зайти на rutor.org? Какой новый адрес рутор? Какое зеркало рутор? Не работает rutor.org и зеркала? Тогда наш торрент специально для вас. Rutor.in неофициальное зеркало rutor. В случае если у Вас заблокирован rutor или вдруг Вы не можете на него зайти, то Вы без труда сможете скачать бесплатно и без рекламы последние новинки кино, игр, сериалов и прочего у нас, на Rutor.in. Не нужно использовать прокси, чтобы зайти на рутор, достаточно воспользоваться нашим ресурсом. Все новые фильмы, игры, сериалы, книги и музыка за 2013 и 2014 годы через торрент бесплатно. Скачивайте фильмы в хорошем качестве, игры для пк, xbox, playstation без регистрации. У нас вы найдете новые Зарубежные сериалы и Русские сериалы 2013, 2014, 2015 годов. Оставайтесь с нами, качайте любимые фильмы, игры, сериалы, книги и музыку.