img image001 image001 image001 image001 image001 image001 image001 image001 image001 image001 image001 image001 image001 image001 image001

Planets Sun Sun Sun
Статистика раздачи
Автор: PriZraK | Размер: 45.43 ГБ | Добавлен: 23 ноя 2016
Раздают: 14    Качают: 18
Скачать торрент
Скачать торрент
Описание торрента

СообщениеДобавлено: 23 ноя 2016 


Дочери Гюнеш / Günesin Kizlari
Страна: Турция
Производство: Süreç Film
Год выпуска: 2015-2016
Сезон: 1
Жанр: драма
Продолжительность: 39х ~02:20:00
Режиссер: Садуллах Селен
В ролях: Эмре Кинай, Эврим Аласья, Толга Сарыташ, Бурджу Озберк, Берк Атан, Ханде Эрчел, Фунда Ильхан, Теоман Кумбараджибаси
Описание: Учительница литературы Гюнеш в свои 35 лет уже потеряла надежду встретить свою любовь. У нее есть три дочери, которые она воспитывает. Однажды она знакомится с очаровательным бизнесменом. Он харизматичный, милый, красивый, заботливый. Чтобы добиться ее сердца он приложил немало усилий. И как результат — они женятся, после чего их жизнь здорово изменилась. Оказывается, что семья Халюка Мертоглу не готова к трем дочерям, которые свалились как гром среди ясного неба. Помимо этого и сам Халюк постепенно начинает проявлять свою темную сторону, которую тщательно скрывал долгие годы. Ревность и вспышки гнева становятся частым явлением, объяснение такому поведению довольно шаткие...

Перевод: Любительский (одноголосый, закадровый) | Кристина Филатова / студия Реальный перевод
Субтитры: нет

Качество: WEB-DLRip
Формат: AVI
Видео кодек: XviD
Аудио кодек: АС3
Видео: 720x400 (16:9), 25.000 fps, XviD build 67 ~1 000 kbps avg
Аудио №1: 48.0 kHz, AC3 Dolby Digital, 2/0 (L,R) ch, ~128 kbps | RUS
Аудио №2: 48.0 kHz, AC3 Dolby Digital, 2/0 (L,R) ch, ~128 kbps | TUR
Дата премьеры (мир): 18 июня 2015

Релиз от: CergMark (CerGold)
General
Complete name : Docheri.Gunesh.01.seriya.2015.WEB-DLRip.(400p).avi
Format : AVI
Format/Info : Audio Video Interleave
Format profile : OpenDML
File size : 1.02 GiB
Duration : 1 h 53 min
Overall bit rate : 1 278 kb/s
Writing application : Lavf57.41.100
Video
ID : 0
Format : MPEG-4 Visual
Format profile : Advanced Simple@L5
Format settings, BVOP : 1
Format settings, QPel : No
Format settings, GMC : No warppoints
Format settings, Matrix : Default (MPEG)
Codec ID : XVID
Codec ID/Hint : XviD
Duration : 1 h 53 min
Bit rate : 1 000 kb/s
Width : 720 pixels
Height : 400 pixels
Display aspect ratio : 16:9
Frame rate : 25.000 FPS
Color space : YUV
Chroma subsampling : 4:2:0
Bit depth : 8 bits
Scan type : Progressive
Compression mode : Lossy
Bits/(Pixel*Frame) : 0.139
Stream size : 815 MiB (78%)
Writing library : XviD 67
Audio #1
ID : 1
Format : AC-3
Format/Info : Audio Coding 3
Mode extension : CM (complete main)
Format settings, Endianness : Big
Codec ID : 2000
Duration : 1 h 53 min
Bit rate mode : Constant
Bit rate : 128 kb/s
Channel(s) : 2 channels
Channel positions : Front: L R
Sampling rate : 44.1 kHz
Frame rate : 28.711 FPS (1536 spf)
Bit depth : 16 bits
Compression mode : Lossy
Stream size : 104 MiB (10%)
Alignment : Aligned on interleaves
Interleave, duration : 35 ms (0.87 video frame)
Audio #2
ID : 2
Format : AC-3
Format/Info : Audio Coding 3
Mode extension : CM (complete main)
Format settings, Endianness : Big
Codec ID : 2000
Duration : 1 h 53 min
Bit rate mode : Constant
Bit rate : 128 kb/s
Channel(s) : 2 channels
Channel positions : Front: L R
Sampling rate : 48.0 kHz
Frame rate : 31.250 FPS (1536 spf)
Bit depth : 16 bits
Compression mode : Lossy
Stream size : 104 MiB (10%)
Alignment : Aligned on interleaves
Interleave, duration : 32 ms (0.80 video frame)



   Похожие торренты   Торрент   Размер 
В этой теме нет новых непрочитанных сообщений. Дочери Гюнеш / Günesin Kizlari [S01] (2015-2016) WEB-DLRip 720p | L1

4 | 19

78.34 ГБ

В этой теме нет новых непрочитанных сообщений. Взрослые дочери [01 из 12] (2015) SATRip

476 | 301

3.52 ГБ

В этой теме нет новых непрочитанных сообщений. Взрослые дочери [01 из 12] (2015) SATRip

834 | 263

5.63 ГБ

В этой теме нет новых непрочитанных сообщений. Взрослые дочери [01 из 12] (2015) SATRip

158 | 7

1.39 ГБ

В этой теме нет новых непрочитанных сообщений. От имени моей дочери / Au nom de ma fille (2016) HDRip | L

142 | 17

1.37 ГБ

В этой теме нет новых непрочитанных сообщений. Взрослые дочери [01 из 12] (2015) HDTVRip от Files-x

60 | 16

3.55 ГБ

В этой теме нет новых непрочитанных сообщений. Взрослые дочери [01-08 из 12] (2015) HDTVRip-AVC от Files-x

34 | 15

6.25 ГБ




Вы не можете начинать темы
Вы не можете отвечать на сообщения
Вы не можете редактировать свои сообщения
Вы не можете удалять свои сообщения
Вы не можете добавлять вложения

Перейти:  
 Вход
ppkBB3cker v.2 © 2008-2014 @ PPK
[ Time : 0.038s | 15 Queries | GZIP : Off ]

cron