img image001 image001 image001 image001 image001 image001 image001 image001 image001 image001 image001 image001 image001 image001 image001

Planets Sun Sun Sun
Статистика раздачи
Автор: PriZraK | Размер: 11.58 ГБ | Добавлен: 25 ноя 2016
Раздают: 25    Качают: 0
Скачать торрент
Скачать торрент
Описание торрента

СообщениеДобавлено: 25 ноя 2016 

Тихий Дон
Эпизод с 1 по 14 (из 14)

Год выпуска: 2015
Страна: Россия
Производство: Москино
Жанр: Драма
Режиссёр: Сергей Урсуляк
В ролях: Евгений Ткачук, Полина Чернышова, Сергей Маковецкий, Людмила Зайцева, Артур Иванов, Анастасия Веденская, Дарья Урсуляк, Никита Ефремов, Александр Яценко, Надежда Лумпова, Виталия Корниенко, Захар Соколов, Пётр Воробьёв, Валерий Жуков, Александр Потапов, Александр Завьялов, Станислав Костецкий, Иван Федотов, Константин Белошапка, Иван Лапин, Тимофей Трибунцев, Александр Горбатов (II), Иван Орлов, Юлия Сулес, Юлия Полынская, Полина Пушкарук, Ирина Латушко, Нина Андронаки, Лика Нифонтова, Дмитрий Белякин, Наталья Савченко, Константин Желдин, Антон Кузнецов, Сергей Сотников
Перевод: Не требуется
Субтитры: Нет
Реклама: Отсутствует
Описание: Экранизация одноименного романа Михаила Шолохова. Фильм охватывает события Первой мировой войны, Октябрьской революции и Гражданской войны. Действие начинается в 1912 году. Герои картины – соседи, станичники, казаки с хутора Татарский станицы Вешенской - живут на этой земле испокон веков, они связаны родством, дружбой, любовью, общим трудом и военной службой. Но этот прочный и самодостаточный мир со своим неповторимым жизненным укладом, привычками и особой системой взглядов и ценностей рушится под натиском кровавой смуты и революции. Дон разделен ненавистью. Казавшиеся незыблемыми вековые основы донской жизни – земля, хутор, семья, воинский долг растворяются в горниле братоубийственной войны. Семьи Мелеховых, Коршуновых, Астаховых, вовлечены в круговорот военных и политических событий.


Качество: WEB-DL 1080
Продолжительность: 14 х 00:45:00
Формат: MKV
Видео кодек: MPEG-4 AVC
Аудио кодек: АС3
Свойства видео: 1920x1080 (16:9), 25 fps, MPEG-4 AVC ~2 750 kbps avg, 0.053 bit/pixel
Свойства аудио: 48 KHz, AC3, 2 ch, ~192.00 kbps avg

Общее
Уникальный идентификатор : 241563494636750000749050680899034454529 (0xB5BB6FD0C28CE18EAE14A036A56C9A01)
Полное имя : D:Tihii.Don.2015.WEB-DL(1080p).ExKinoRay1.Tihii.Don.2015.WEB-DL(1080p).ExKinoRay.mkv
Формат : Matroska
Версия формата : Version 2
Размер файла : 956 Мбайт
Продолжительность : 44 м.
Общий поток : 2990 Кбит/сек
Дата кодирования : UTC 2016-11-25 07:12:57
Программа кодирования : mkvmerge v7.8.0 ('River Man') 32bit built on Apr 3 2015 12:11:22
Библиотека кодирования : libebml v1.3.1 + libmatroska v1.4.2
Видео
Идентификатор : 1
Формат : AVC
Формат/Информация : Advanced Video Codec
Профиль формата : High@L4.0
Параметр CABAC формата : Да
Параметр ReFrames формата : 3 кадра
Идентификатор кодека : V_MPEG4/ISO/AVC
Продолжительность : 44 м.
Битрейт : 2739 Кбит/сек
Ширина : 1920 пикселей
Высота : 1080 пикселей
Соотношение сторон : 16:9
Режим частоты кадров : Постоянный
Частота кадров : 25,000 кадров/сек
Цветовое пространство : YUV
Субдискретизация насыщенности : 4:2:0
Битовая глубина : 8 бит
Тип развёртки : Прогрессивная
Бит/(Пиксели*Кадры) : 0.053
Размер потока : 876 Мбайт (92%)
Default : Да
Forced : Нет
Основные цвета : BT.709
Характеристики трансфера : BT.709
Коэффициенты матрицы : BT.709
Аудио
Идентификатор : 2
Формат : AC-3
Формат/Информация : Audio Coding 3
Расширение режима : CM (complete main)
Параметр Endianness формата : Big
Идентификатор кодека : A_AC3
Продолжительность : 44 м.
Вид битрейта : Постоянный
Битрейт : 192 Кбит/сек
Каналы : 2 канала
Расположение каналов : Front: L R
Частота : 48,0 КГц
Битовая глубина : 16 бит
Метод сжатия : С потерями
Размер потока : 61,4 Мбайт (6%)
Default : Да
Forced : Нет





   Похожие торренты   Торрент   Размер 
В этой теме нет новых непрочитанных сообщений. Тихий час / The Quiet Hour (2014) BDRip 1080p | P

6 | 0

6.94 ГБ

В этой теме нет новых непрочитанных сообщений. Тихий час / The Quiet Hour (2014) BDRemux 1080p | P

1 | 0

15.12 ГБ

В этой теме нет новых непрочитанных сообщений. Тихий дом / Silent House (2011) Blu-Ray Remux 1080p от NovaLan

32 | 20

21.49 ГБ

В этой теме нет новых непрочитанных сообщений. Тихий человек / The Quiet Man (1952) BDRip 1080p by msltel | P

0 | 2

18.29 ГБ

В этой теме нет новых непрочитанных сообщений. Тихий Дон [01-02 из 14] (2015) SATRip

96 | 17

3.54 ГБ

В этой теме нет новых непрочитанных сообщений. Тихий Дон [01-02 из 14] (2015) SATRip

185 | 7

1.82 ГБ

В этой теме нет новых непрочитанных сообщений. Тихий Дон [01-09 из 14] (2015) SATRip

214 | 275

5.29 ГБ




Вы не можете начинать темы
Вы не можете отвечать на сообщения
Вы не можете редактировать свои сообщения
Вы не можете удалять свои сообщения
Вы не можете добавлять вложения

Перейти:  
Для Мосгорсуда, Роскомнадзора и рекламодателей: mosgorsud-torrent[собачка]yandex.ru
 Вход
ppkBB3cker v.2 © 2008-2014 @ PPK
[ Time : 0.065s | 16 Queries | GZIP : Off ]

Торрент трекер RUTOR.IN, Не можете зайти на rutor.org? Какой новый адрес рутор? Какое зеркало рутор? Не работает rutor.org и зеркала? Тогда наш торрент специально для вас. Rutor.in неофициальное зеркало rutor. В случае если у Вас заблокирован rutor или вдруг Вы не можете на него зайти, то Вы без труда сможете скачать бесплатно и без рекламы последние новинки кино, игр, сериалов и прочего у нас, на Rutor.in. Не нужно использовать прокси, чтобы зайти на рутор, достаточно воспользоваться нашим ресурсом. Все новые фильмы, игры, сериалы, книги и музыка за 2013 и 2014 годы через торрент бесплатно. Скачивайте фильмы в хорошем качестве, игры для пк, xbox, playstation без регистрации. У нас вы найдете новые Зарубежные сериалы и Русские сериалы 2013, 2014, 2015 годов. Оставайтесь с нами, качайте любимые фильмы, игры, сериалы, книги и музыку.
cron