img image001 image001 image001 image001 image001 image001 image001 image001 image001 image001 image001 image001 image001 image001 image001

Planets Sun Sun Sun
Статистика раздачи
Автор: PriZraK | Размер: 55.97 ГБ | Добавлен: 30 ноя 2016
Раздают: 3    Качают: 3
Скачать торрент
Скачать торрент
Описание торрента

СообщениеДобавлено: 30 ноя 2016 

Название: Клан Сопрано
Оригинальное название: The Sopranos
Год выхода: 2001
Страна: США
Студия: Home Box Office (HBO), Brillstein Entertainment Partners, The Park Entertainment
Продолжительность: 13 x ~ 55:00
Жанр: драма, криминал
Режиссер: Тимоти Ван Паттен, Джон Паттерсон, Аллен Култер, ...
В ролях: Джеймс Гандольфини, Лоррейн Бракко, Иди Фалько, Майкл Империоли, Доминик Кьянезе, Стив Ван Зандт, Тони Сирико, Роберт Айлер, Джэми-Линн Сиглер, Аида Туртурро, ...
Перевод:
- Профессиональный (многоголосный, закадровый) Novamedia по заказу Amedia
- Профессиональный (многоголосный, закадровый) Fox Crime
- Профессиональный (многоголосный, закадровый) НТВ
- Авторский (одноголосый, закадровый) Сербин Юрий Владимирович
- Авторский (одноголосый, закадровый) Пучков Дмитрий Юрьевич
- Авторский (одноголосый, закадровый) Карповский Антон Сергеевич
- Субтитры
О фильме: Повседневная жизнь современного Крестного отца: его мысли — стремительны, действия — решительны, а юмор — черен. Мафиозный босс Северного Джерси Тони Сопрано успешно справляется с проблемами «Семьи».
Но вот собственная семья немного подкачала: дети от рук отбились, брак — под угрозой, мамаша — пилит. Он надеется на помощь психиатра, но как тому рассказать обо всех своих проблемах, если связан «Омертой» — обетом молчания, нарушать который нельзя под страхом смерти?…

Кодек: x264
Качество: BDRip 720p
Видео: 1280x720, 6000 kbps, 23,976 fps
Аудио #1 : AC-3, 6 ch, 384 kbps (Rus) - MVO Amedia
Аудио #2 : AC-3, 2 ch, 192 kbps (Rus) - MVO Fox Crime
Аудио #3 : AC-3, 2 ch, 192 kbps (Rus) - MVO НТВ
Аудио #4 (01-09 серии): AC-3, 6 ch, 640 kbps (Rus) - AVO Сербин Юрий Владимирович
Аудио #5 : AC-3, 2 ch, 192 kbps (Rus) - AVO Пучков Дмитрий Юрьевич (Goblin)
Аудио #6 : AC-3, 6 ch, 384 kbps (Rus) - VO Карповский Антон Сергеевич
Аудио #7: DTS, 6 ch, 1509 kbps (Eng)
Субтитры: Русские, Английские
За исходники спасибо - kapo-kolt
Видеоряд 01-09 серии с раздачи oleg1980.
Перевод Ю.Сербина осуществлен в рамках сервиса "Озвучивание". Спонсоры: gelom, Loki1982, Juve, Tucha, ray_hollis, Haizenberg, Euginex, tsr, anton_m1, lagerbeck, diatribes, eolkhovski, mercyful_fate, Anatoliy555, vobolok, zayy, izbk1

x264 [info]: frame I:636 Avg QP:16.44 size:130404
x264 [info]: frame P:12371 Avg QP:19.78 size: 58868
x264 [info]: frame B:52730 Avg QP:21.35 size: 23617
x264 [info]: consecutive B-frames: 1.5% 1.0% 2.3% 14.3% 20.5% 43.2% 7.6% 3.8% 2.1% 1.4% 0.3% 1.5% 0.4%
Общее
Уникальный идентификатор : 213006716922875651454366207666581962616 (0xA03F99F87A9DA5C69BB721FE8FDC7F78)
Полное имя : The Sopranos E10 S03 2001 BDRip 720p.mkv
Формат : Matroska
Версия формата : Version 2
Размер файла : 2,83 Гбайт
Продолжительность : 45 м.
Общий поток : 8857 Кбит/сек
Дата кодирования : UTC 2016-11-25 17:36:18
Программа кодирования : mkvmerge v4.0.0 ('The Stars were mine') сборка от Jun 6 2010 16:18:42
Библиотека кодирования : libebml v1.0.0 + libmatroska v1.0.0
Видео
Идентификатор : 1
Формат : AVC
Формат/Информация : Advanced Video Codec
Профиль формата : High@L4.1
Параметр CABAC формата : Да
Параметр ReFrames формата : 9 кадров
Идентификатор кодека : V_MPEG4/ISO/AVC
Продолжительность : 45 м.
Битрейт : 6000 Кбит/сек
Ширина : 1280 пикселей
Высота : 720 пикселей
Соотношение сторон : 16:9
Режим частоты кадров : Постоянный
Частота кадров : 23,976 (24000/1001) кадра/сек
Цветовое пространство : YUV
Субдискретизация насыщенности : 4:2:0
Битовая глубина : 8 бит
Тип развёртки : Прогрессивная
Бит/(Пиксели*Кадры) : 0.272
Размер потока : 1,86 Гбайт (66%)
Библиотека кодирования : x264 core 146 r2538 121396c
Настройки программы : cabac=1 / ref=9 / deblock=1:-3:-3 / analyse=0x3:0x133 / me=umh / subme=11 / psy=1 / psy_rd=1.00:0.00 / mixed_ref=1 / me_range=32 / chroma_me=1 / trellis=2 / 8x8dct=1 / cqm=0 / deadzone=21,11 / fast_pskip=0 / chroma_qp_offset=-2 / threads=12 / lookahead_threads=2 / sliced_threads=0 / nr=0 / decimate=0 / interlaced=0 / bluray_compat=0 / constrained_intra=0 / bframes=12 / b_pyramid=2 / b_adapt=2 / b_bias=0 / direct=3 / weightb=1 / open_gop=0 / weightp=2 / keyint=240 / keyint_min=23 / scenecut=40 / intra_refresh=0 / rc=2pass / mbtree=0 / bitrate=6000 / ratetol=1.0 / qcomp=0.60 / qpmin=0 / qpmax=69 / qpstep=4 / cplxblur=20.0 / qblur=0.5 / ip_ratio=1.40 / pb_ratio=1.30 / aq=1:0.80
Язык : English
Default : Нет
Forced : Нет
Аудио #1
Идентификатор : 2
Формат : AC-3
Формат/Информация : Audio Coding 3
Расширение режима : CM (complete main)
Параметр Endianness формата : Big
Идентификатор кодека : A_AC3
Продолжительность : 45 м.
Вид битрейта : Постоянный
Битрейт : 384 Кбит/сек
Каналы : 6 каналов
Расположение каналов : Front: L C R, Side: L R, LFE
Частота : 48,0 КГц
Частота кадров : 31,250 кадров/сек (1536 spf)
Метод сжатия : С потерями
Размер потока : 126 Мбайт (4%)
Заголовок : MVO Amedia
Язык : Russian
Default : Нет
Forced : Нет
Аудио #2
Идентификатор : 3
Формат : AC-3
Формат/Информация : Audio Coding 3
Расширение режима : CM (complete main)
Параметр Endianness формата : Big
Идентификатор кодека : A_AC3
Продолжительность : 45 м.
Вид битрейта : Постоянный
Битрейт : 192 Кбит/сек
Каналы : 2 канала
Расположение каналов : Front: L R
Частота : 48,0 КГц
Частота кадров : 31,250 кадров/сек (1536 spf)
Метод сжатия : С потерями
Размер потока : 62,8 Мбайт (2%)
Заголовок : MVO Fox Crime
Язык : Russian
Default : Нет
Forced : Нет
Аудио #3
Идентификатор : 4
Формат : AC-3
Формат/Информация : Audio Coding 3
Расширение режима : CM (complete main)
Параметр Endianness формата : Big
Идентификатор кодека : A_AC3
Продолжительность : 45 м.
Вид битрейта : Постоянный
Битрейт : 192 Кбит/сек
Каналы : 2 канала
Расположение каналов : Front: L R
Частота : 48,0 КГц
Частота кадров : 31,250 кадров/сек (1536 spf)
Метод сжатия : С потерями
Размер потока : 62,8 Мбайт (2%)
Заголовок : MVO НТВ
Язык : Russian
Default : Нет
Forced : Нет
Аудио #4
Идентификатор : 5
Формат : AC-3
Формат/Информация : Audio Coding 3
Расширение режима : CM (complete main)
Параметр Endianness формата : Big
Идентификатор кодека : A_AC3
Продолжительность : 45 м.
Вид битрейта : Постоянный
Битрейт : 192 Кбит/сек
Каналы : 2 канала
Расположение каналов : Front: L R
Частота : 48,0 КГц
Частота кадров : 31,250 кадров/сек (1536 spf)
Метод сжатия : С потерями
Размер потока : 62,8 Мбайт (2%)
Заголовок : AVO Пучков Дмитрий Юрьевич (Goblin)
Язык : Russian
Default : Нет
Forced : Нет
Аудио #5
Идентификатор : 6
Формат : AC-3
Формат/Информация : Audio Coding 3
Расширение режима : CM (complete main)
Параметр Endianness формата : Big
Идентификатор кодека : A_AC3
Продолжительность : 45 м.
Вид битрейта : Постоянный
Битрейт : 384 Кбит/сек
Каналы : 6 каналов
Расположение каналов : Front: L C R, Side: L R, LFE
Частота : 48,0 КГц
Частота кадров : 31,250 кадров/сек (1536 spf)
Метод сжатия : С потерями
Размер потока : 126 Мбайт (4%)
Заголовок : VO Карповский Антон Сергеевич
Язык : Russian
Default : Нет
Forced : Нет
Аудио #6
Идентификатор : 7
Формат : DTS
Формат/Информация : Digital Theater Systems
Режим : 16
Параметр Endianness формата : Big
Идентификатор кодека : A_DTS
Продолжительность : 45 м.
Вид битрейта : Постоянный
Битрейт : 1509 Кбит/сек
Каналы : 6 каналов
Расположение каналов : Front: L C R, Side: L R, LFE
Частота : 48,0 КГц
Частота кадров : 93,750 кадра/сек (512 spf)
Битовая глубина : 16 бит
Метод сжатия : С потерями
Размер потока : 493 Мбайт (17%)
Язык : English
Default : Нет
Forced : Нет
Текст #1
Идентификатор : 8
Формат : UTF-8
Идентификатор кодека : S_TEXT/UTF8
Идентификатор кодека/Информация : UTF-8 Plain Text
Заголовок : Amedia
Язык : Russian
Default : Нет
Forced : Нет
Текст #2
Идентификатор : 9
Формат : UTF-8
Идентификатор кодека : S_TEXT/UTF8
Идентификатор кодека/Информация : UTF-8 Plain Text
Язык : English
Default : Нет
Forced : Нет





   Похожие торренты   Торрент   Размер 
В этой теме нет новых непрочитанных сообщений. Клан Сопрано / The Sopranos [S03] (2001) BDRip от HQ-ViDEO

45 | 36

10.93 ГБ

В этой теме нет новых непрочитанных сообщений. Клан Сопрано / Семья Сопрано / The Sopranos [S01] (1999) BDRip от HELLYWOOD

338 | 93

14.04 ГБ

В этой теме нет новых непрочитанных сообщений. Клан Сопрано / The Sopranos [S03] (2001) WEB-DLRip от Scarabey | Гоблин

280 | 93

9.54 ГБ

В этой теме нет новых непрочитанных сообщений. Клан Сопрано / The Sopranos [S01] (1999) BDRip 720p | D, P, A

3 | 6

44.32 ГБ

В этой теме нет новых непрочитанных сообщений. Клан Сопрано / The Sopranos [S02] (2000) BDRip 720p | P, A

5 | 2

48.56 ГБ

В этой теме нет новых непрочитанных сообщений. Клан Сопрано / The Sopranos [S04] (2002) BDRip 720p | P, A

6 | 6

43.65 ГБ

В этой теме нет новых непрочитанных сообщений. Клан Сопрано / The Sopranos [S05] (2004) BDRip 720p | P, A

9 | 0

41.81 ГБ




Вы не можете начинать темы
Вы не можете отвечать на сообщения
Вы не можете редактировать свои сообщения
Вы не можете удалять свои сообщения
Вы не можете добавлять вложения

Перейти:  
Для Мосгорсуда, Роскомнадзора и рекламодателей: mosgorsud-torrent[собачка]yandex.ru
 Вход
ppkBB3cker v.2 © 2008-2014 @ PPK
[ Time : 0.983s | 16 Queries | GZIP : Off ]

Торрент трекер RUTOR.IN, Не можете зайти на rutor.org? Какой новый адрес рутор? Какое зеркало рутор? Не работает rutor.org и зеркала? Тогда наш торрент специально для вас. Rutor.in неофициальное зеркало rutor. В случае если у Вас заблокирован rutor или вдруг Вы не можете на него зайти, то Вы без труда сможете скачать бесплатно и без рекламы последние новинки кино, игр, сериалов и прочего у нас, на Rutor.in. Не нужно использовать прокси, чтобы зайти на рутор, достаточно воспользоваться нашим ресурсом. Все новые фильмы, игры, сериалы, книги и музыка за 2013 и 2014 годы через торрент бесплатно. Скачивайте фильмы в хорошем качестве, игры для пк, xbox, playstation без регистрации. У нас вы найдете новые Зарубежные сериалы и Русские сериалы 2013, 2014, 2015 годов. Оставайтесь с нами, качайте любимые фильмы, игры, сериалы, книги и музыку.