img image001 image001 image001 image001 image001 image001 image001 image001 image001 image001 image001 image001 image001 image001 image001

Planets Sun Sun Sun
Статистика раздачи
Автор: PriZraK | Размер: 4.25 ГБ | Добавлен: 30 ноя 2016
Раздают: 58    Качают: 2
Скачать торрент
Скачать торрент
Описание торрента

СообщениеДобавлено: 30 ноя 2016 

Коготь из Мавритании
Сезон 2,эпизоды с 1 по 4 (из 4)

Год выпуска: 2016
Страна: Россия
Производство: Кинокомпания «Марс Медиа Энтертейнмент»
Жанр: Детектив
Режиссёр: Наталья Хлопецкая
В ролях: Марина Коняшкина, Сергей Галахов, Сергей Жарков, Илья Древнов, Сергей Петров, Сергей Кизас, Людмила Чурсина, Константин Чепурин
Перевод: Не требуется
Субтитры: Нет
Реклама: Отсутствует
Описание: После нескольких месяцев затишья в столице возобновляются ритуальные убийства девушек. К расследованию подключается майор Александра Мур. Ей предстоит сработаться с новым напарником Дмитрием Роговым. Но есть задача и посложнее - найти подход к профессору Шульцу, который отбывает наказание за пособничество в убийствах. Именно погибшего брата Шульца считали маньяком до возобновления серии. Становится ясно: родственник профессора, как минимум, не единственный виновный...


Качество: WEB-DL 1080
Продолжительность: 4 х 00:47:00
Формат: MKV
Видео кодек: MPEG-4 AVC
Аудио кодек: АС3
Свойства видео: 1920x1080 (16:9), 25 fps, MPEG-4 AVC ~3 240 kbps avg, 0.053 bit/pixel
Свойства аудио: 48 KHz, AC3, 2 ch, ~192.00 kbps avg

Общее
Уникальный идентификатор : 250123977681405514171057383950838031103 (0xBC2C20373840D606A5A434111F8E62FF)
Полное имя : D:Kogot.iz.Mavritanii.2.WEB-DL(1080p).ExKinoRay4.Kogot.iz.Mavritanii.2.WEB-DL(1080p).ExKinoRay.mkv
Формат : Matroska
Версия формата : Version 2
Размер файла : 1,22 Гбайт
Продолжительность : 49 м.
Общий поток : 3504 Кбит/сек
Название фильма : 04.Kogot.iz.Mavritanii.2.WEB-DL(1080p).ExKinoRay от TorpedoUK
Дата кодирования : UTC 2016-11-27 10:28:37
Программа кодирования : mkvmerge v7.8.0 ('River Man') 32bit built on Apr 3 2015 12:11:22
Библиотека кодирования : libebml v1.3.1 + libmatroska v1.4.2
Видео
Идентификатор : 1
Формат : AVC
Формат/Информация : Advanced Video Codec
Профиль формата : High@L4.0
Параметр CABAC формата : Да
Параметр ReFrames формата : 2 кадра
Идентификатор кодека : V_MPEG4/ISO/AVC
Продолжительность : 49 м.
Битрейт : 3242 Кбит/сек
Ширина : 1920 пикселей
Высота : 1080 пикселей
Соотношение сторон : 16:9
Режим частоты кадров : Постоянный
Частота кадров : 25,000 кадров/сек
Цветовое пространство : YUV
Субдискретизация насыщенности : 4:2:0
Битовая глубина : 8 бит
Тип развёртки : Прогрессивная
Бит/(Пиксели*Кадры) : 0.063
Размер потока : 1,13 Гбайт (93%)
Default : Да
Forced : Нет
Основные цвета : BT.709
Характеристики трансфера : BT.709
Коэффициенты матрицы : BT.709
Аудио
Идентификатор : 2
Формат : AC-3
Формат/Информация : Audio Coding 3
Расширение режима : CM (complete main)
Параметр Endianness формата : Big
Идентификатор кодека : A_AC3
Продолжительность : 49 м.
Вид битрейта : Постоянный
Битрейт : 192 Кбит/сек
Каналы : 2 канала
Расположение каналов : Front: L R
Частота : 48,0 КГц
Битовая глубина : 16 бит
Метод сжатия : С потерями
Размер потока : 68,2 Мбайт (5%)
Default : Да
Forced : Нет





   Похожие торренты   Торрент   Размер 
В этой теме нет новых непрочитанных сообщений. Коготь из Мавритании [01-04 из 04] (2015) WEB-DL 1080p от Files-x

197 | 12

5.31 ГБ

В этой теме нет новых непрочитанных сообщений. Коготь из Мавритании [S02] (2016) WEB-DLRip | КПК

47 | 3

850.29 МБ

В этой теме нет новых непрочитанных сообщений. Коготь из Мавритании [S02] (2016) WEB-DL 720p от Files-x

74 | 19

2.27 ГБ

В этой теме нет новых непрочитанных сообщений. Коготь из Мавритании [2x01-04 из 04] (2016) SATRip от Files-x

114 | 3

2.15 ГБ

В этой теме нет новых непрочитанных сообщений. Коготь из Мавритании [2x01-04 из 04] (2016) WEB-DLRip-AVC от Files-x

78 | 13

2.36 ГБ

В этой теме нет новых непрочитанных сообщений. Коготь из Мавритании [S01] (2015) WEB-DLRip | КПК

50 | 7

823.14 МБ

В этой теме нет новых непрочитанных сообщений. Коготь из Мавритании [01-04 из 04] (2015) SATRip

2574 | 310

2.43 ГБ




Вы не можете начинать темы
Вы не можете отвечать на сообщения
Вы не можете редактировать свои сообщения
Вы не можете удалять свои сообщения
Вы не можете добавлять вложения

Перейти:  
Для Мосгорсуда, Роскомнадзора и рекламодателей: mosgorsud-torrent[собачка]yandex.ru
 Вход
ppkBB3cker v.2 © 2008-2014 @ PPK
[ Time : 0.092s | 16 Queries | GZIP : Off ]

Торрент трекер RUTOR.IN, Не можете зайти на rutor.org? Какой новый адрес рутор? Какое зеркало рутор? Не работает rutor.org и зеркала? Тогда наш торрент специально для вас. Rutor.in неофициальное зеркало rutor. В случае если у Вас заблокирован rutor или вдруг Вы не можете на него зайти, то Вы без труда сможете скачать бесплатно и без рекламы последние новинки кино, игр, сериалов и прочего у нас, на Rutor.in. Не нужно использовать прокси, чтобы зайти на рутор, достаточно воспользоваться нашим ресурсом. Все новые фильмы, игры, сериалы, книги и музыка за 2013 и 2014 годы через торрент бесплатно. Скачивайте фильмы в хорошем качестве, игры для пк, xbox, playstation без регистрации. У нас вы найдете новые Зарубежные сериалы и Русские сериалы 2013, 2014, 2015 годов. Оставайтесь с нами, качайте любимые фильмы, игры, сериалы, книги и музыку.