img image001 image001 image001 image001 image001 image001 image001 image001 image001 image001 image001 image001 image001 image001 image001

Planets Sun Sun Sun
Статистика раздачи
Автор: PriZraK | Размер: 68.24 ГБ | Добавлен: 29 ноя 2016
Раздают: 4    Качают: 3
Скачать торрент
Скачать торрент
Описание торрента

СообщениеДобавлено: 29 ноя 2016 

Название: Клан Сопрано
Оригинальное название: The Sopranos
Год выхода: 2006-2007
Страна: США
Студия: Home Box Office (HBO), Brillstein Entertainment Partners, The Park Entertainment
Продолжительность: 21 x ~ 55:00
Жанр: драма, криминал
Режиссер: Тимоти Ван Паттен, Джон Паттерсон, Аллен Култер, ...
В ролях: Джеймс Гандольфини, Лоррейн Бракко, Иди Фалько, Майкл Империоли, Доминик Кьянезе, Стив Ван Зандт, Тони Сирико, Роберт Айлер, Джэми-Линн Сиглер, Аида Туртурро, ...
Перевод:
- Профессиональный (многоголосный, закадровый) Novamedia по заказу Amedia
- Профессиональный (многоголосный, закадровый) Fox Crime
- Профессиональный (многоголосный, закадровый) НТВ
- Авторский (одноголосый, закадровый) Пучков Дмитрий Юрьевич
- Авторский (одноголосый, закадровый) Чадов Михаил (по переводу Souldluck)
- Любительский (одноголосый, закадровый) А.Метюшкин (по переводу Souldluck)
- Любительский (одноголосый, закадровый) Всеволод Воротинцев (Souldluck)
- Субтитры
О фильме: Повседневная жизнь современного Крестного отца: его мысли — стремительны, действия — решительны, а юмор — черен. Мафиозный босс Северного Джерси Тони Сопрано успешно справляется с проблемами «Семьи».
Но вот собственная семья немного подкачала: дети от рук отбились, брак — под угрозой, мамаша — пилит. Он надеется на помощь психиатра, но как тому рассказать обо всех своих проблемах, если связан «Омертой» — обетом молчания, нарушать который нельзя под страхом смерти?…

Кодек: x264
Качество: BDRip 720p
Видео: 1280x720, 5500 kbps, 23,976 fps
Аудио #1 : AC-3, 6 ch, 384 kbps (Rus) - MVO Amedia
Аудио #2 : AC-3, 2 ch, 192 kbps (Rus) - MVO Fox Crime
Аудио #3 : AC-3, 2 ch, 192 kbps (Rus) - MVO НТВ
Аудио #4 (1 серия): AC-3, 6 ch, 640 kbps (Rus) - AVO Пучков Дмитрий Юрьевич (Goblin)
Аудио #4 (2,3 серии): AC-3, 2 ch, 192 kbps (Rus) - VO А.Метюшкин
Аудио #4 (4-21 серии): AC-3, 2 ch, 192 kbps (Rus) - Всеволод Воротинцев (Souldluck)
Аудио #5 : AC-3, 6 ch, 640 kbps (Rus) - AVO Чадов Михаил
Аудио #6: DTS, 6 ch, 1509 kbps (Eng)
Субтитры: Русские, Английские
За озвучку Михаила Чадова по переводу Всеволода Воротинцева (Souldluck), благодарим следующих спонсоров: kapo-kolt, rikkibobbi, shandorra6, ананимус, feodottt, ffkodiak, uNseen), Sw, RAUL, Анонимус

Общее
Уникальный идентификатор : 234127337723047074273384178506015047098 (0xB02348F92BC7A9A09E0E7CB0B841FDBA)
Полное имя : The Sopranos E01 S06 2006 BDRip 720p.mkv
Формат : Matroska
Версия формата : Version 2
Размер файла : 3,30 Гбайт
Продолжительность : 52 м.
Общий поток : 9033 Кбит/сек
Дата кодирования : UTC 2016-11-26 12:33:01
Программа кодирования : mkvmerge v4.0.0 ('The Stars were mine') сборка от Jun 6 2010 16:18:42
Библиотека кодирования : libebml v1.0.0 + libmatroska v1.0.0
Видео
Идентификатор : 1
Формат : AVC
Формат/Информация : Advanced Video Codec
Профиль формата : High@L4.1
Параметр CABAC формата : Да
Параметр ReFrames формата : 9 кадров
Идентификатор кодека : V_MPEG4/ISO/AVC
Продолжительность : 52 м.
Битрейт : 5296 Кбит/сек
Ширина : 1280 пикселей
Высота : 720 пикселей
Соотношение сторон : 16:9
Режим частоты кадров : Постоянный
Частота кадров : 23,976 (24000/1001) кадра/сек
Цветовое пространство : YUV
Субдискретизация насыщенности : 4:2:0
Битовая глубина : 8 бит
Тип развёртки : Прогрессивная
Бит/(Пиксели*Кадры) : 0.240
Размер потока : 1,94 Гбайт (59%)
Библиотека кодирования : x264 core 120 r2164 da19765
Настройки программы : cabac=1 / ref=9 / deblock=1:-3:-3 / analyse=0x3:0x133 / me=tesa / subme=10 / psy=1 / psy_rd=1.00:0.25 / mixed_ref=1 / me_range=16 / chroma_me=1 / trellis=2 / 8x8dct=1 / cqm=0 / deadzone=21,11 / fast_pskip=0 / chroma_qp_offset=-4 / threads=6 / sliced_threads=0 / nr=0 / decimate=0 / interlaced=0 / bluray_compat=0 / constrained_intra=0 / bframes=6 / b_pyramid=2 / b_adapt=2 / b_bias=0 / direct=3 / weightb=1 / open_gop=0 / weightp=2 / keyint=240 / keyint_min=23 / scenecut=40 / intra_refresh=0 / rc_lookahead=60 / rc=crf / mbtree=0 / crf=18.0 / qcomp=0.60 / qpmin=0 / qpmax=69 / qpstep=4 / vbv_maxrate=50000 / vbv_bufsize=50000 / crf_max=0.0 / nal_hrd=none / ip_ratio=1.40 / pb_ratio=1.30 / aq=1:0.50 / zones=0,173,q=40/72855,75284,q=40
Язык : English
Default : Нет
Forced : Нет
Аудио #1
Идентификатор : 2
Формат : AC-3
Формат/Информация : Audio Coding 3
Расширение режима : CM (complete main)
Параметр Endianness формата : Big
Идентификатор кодека : A_AC3
Продолжительность : 52 м.
Вид битрейта : Постоянный
Битрейт : 384 Кбит/сек
Каналы : 6 каналов
Расположение каналов : Front: L C R, Side: L R, LFE
Частота : 48,0 КГц
Частота кадров : 31,250 кадров/сек (1536 spf)
Метод сжатия : С потерями
Размер потока : 144 Мбайт (4%)
Заголовок : MVO Amedia
Язык : Russian
Default : Нет
Forced : Нет
Аудио #2
Идентификатор : 3
Формат : AC-3
Формат/Информация : Audio Coding 3
Расширение режима : CM (complete main)
Параметр Endianness формата : Big
Идентификатор кодека : A_AC3
Продолжительность : 52 м.
Вид битрейта : Постоянный
Битрейт : 192 Кбит/сек
Каналы : 2 канала
Расположение каналов : Front: L R
Частота : 48,0 КГц
Частота кадров : 31,250 кадров/сек (1536 spf)
Метод сжатия : С потерями
Размер потока : 71,9 Мбайт (2%)
Заголовок : MVO Fox Crime
Язык : Russian
Default : Нет
Forced : Нет
Аудио #3
Идентификатор : 4
Формат : AC-3
Формат/Информация : Audio Coding 3
Расширение режима : CM (complete main)
Параметр Endianness формата : Big
Идентификатор кодека : A_AC3
Продолжительность : 52 м.
Вид битрейта : Постоянный
Битрейт : 192 Кбит/сек
Каналы : 2 канала
Расположение каналов : Front: L R
Частота : 48,0 КГц
Частота кадров : 31,250 кадров/сек (1536 spf)
Метод сжатия : С потерями
Размер потока : 71,9 Мбайт (2%)
Заголовок : MVO НТВ
Язык : Russian
Default : Нет
Forced : Нет
Аудио #4
Идентификатор : 5
Формат : AC-3
Формат/Информация : Audio Coding 3
Расширение режима : CM (complete main)
Параметр Endianness формата : Big
Идентификатор кодека : A_AC3
Продолжительность : 52 м.
Вид битрейта : Постоянный
Битрейт : 640 Кбит/сек
Каналы : 6 каналов
Расположение каналов : Front: L C R, Side: L R, LFE
Частота : 48,0 КГц
Частота кадров : 31,250 кадров/сек (1536 spf)
Метод сжатия : С потерями
Размер потока : 240 Мбайт (7%)
Заголовок : AVO Пучков Дмитрий Юрьевич (Goblin)
Язык : Russian
Default : Нет
Forced : Нет
Аудио #5
Идентификатор : 6
Формат : AC-3
Формат/Информация : Audio Coding 3
Расширение режима : CM (complete main)
Параметр Endianness формата : Big
Идентификатор кодека : A_AC3
Продолжительность : 52 м.
Вид битрейта : Постоянный
Битрейт : 640 Кбит/сек
Каналы : 6 каналов
Расположение каналов : Front: L C R, Side: L R, LFE
Частота : 48,0 КГц
Частота кадров : 31,250 кадров/сек (1536 spf)
Метод сжатия : С потерями
Размер потока : 240 Мбайт (7%)
Заголовок : AVO Чадов Михаил
Язык : Russian
Default : Нет
Forced : Нет
Аудио #6
Идентификатор : 7
Формат : DTS
Формат/Информация : Digital Theater Systems
Режим : 16
Параметр Endianness формата : Big
Идентификатор кодека : A_DTS
Продолжительность : 52 м.
Вид битрейта : Постоянный
Битрейт : 1509 Кбит/сек
Каналы : 6 каналов
Расположение каналов : Front: L C R, Side: L R, LFE
Частота : 48,0 КГц
Частота кадров : 93,750 кадра/сек (512 spf)
Битовая глубина : 16 бит
Метод сжатия : С потерями
Размер потока : 565 Мбайт (17%)
Язык : English
Default : Нет
Forced : Нет
Текст #1
Идентификатор : 8
Формат : UTF-8
Идентификатор кодека : S_TEXT/UTF8
Идентификатор кодека/Информация : UTF-8 Plain Text
Заголовок : Amedia
Язык : Russian
Default : Нет
Forced : Нет
Текст #2
Идентификатор : 9
Формат : UTF-8
Идентификатор кодека : S_TEXT/UTF8
Идентификатор кодека/Информация : UTF-8 Plain Text
Заголовок : Soldluck
Язык : Russian
Default : Нет
Forced : Нет
Текст #3
Идентификатор : 10
Формат : UTF-8
Идентификатор кодека : S_TEXT/UTF8
Идентификатор кодека/Информация : UTF-8 Plain Text
Язык : English
Default : Нет
Forced : Нет





   Похожие торренты   Торрент   Размер 
В этой теме нет новых непрочитанных сообщений. Клан Сопрано / The Sopranos [S06] (2006-2007) BDRip 720p от Filmrus

7 | 20

46.79 ГБ

В этой теме нет новых непрочитанных сообщений. Клан Сопрано / The Sopranos [S06] (2006-2007) BDRip от HQ-ViDEO

34 | 33

18.56 ГБ

В этой теме нет новых непрочитанных сообщений. Клан Сопрано / The Sopranos [S01-06] (1999-2007) BDRip | Amedia

340 | 921

69.66 ГБ

В этой теме нет новых непрочитанных сообщений. Клан Сопрано / The Sopranos [S01-06] (1999-2007) WEB-DL 720p | Пучков, Чадов

149 | 914

180.21 ГБ

В этой теме нет новых непрочитанных сообщений. Клан Сопрано / Семья Сопрано / The Sopranos [S01] (1999) BDRip от HELLYWOOD

338 | 93

14.04 ГБ

В этой теме нет новых непрочитанных сообщений. Клан Сопрано / The Sopranos [s01-06] (1999-2007) BDRip 1080p HEVC | Novamedia

62 | 170

103.08 ГБ

В этой теме нет новых непрочитанных сообщений. Клан Сопрано / The Sopranos [S01-06] (1999-2007) HDRip-AVC | A

127 | 538

70.66 ГБ




Вы не можете начинать темы
Вы не можете отвечать на сообщения
Вы не можете редактировать свои сообщения
Вы не можете удалять свои сообщения
Вы не можете добавлять вложения

Перейти:  
Для Мосгорсуда, Роскомнадзора и рекламодателей: mosgorsud-torrent[собачка]yandex.ru
 Вход
ppkBB3cker v.2 © 2008-2014 @ PPK
[ Time : 0.074s | 17 Queries | GZIP : Off ]

Торрент трекер RUTOR.IN, Не можете зайти на rutor.org? Какой новый адрес рутор? Какое зеркало рутор? Не работает rutor.org и зеркала? Тогда наш торрент специально для вас. Rutor.in неофициальное зеркало rutor. В случае если у Вас заблокирован rutor или вдруг Вы не можете на него зайти, то Вы без труда сможете скачать бесплатно и без рекламы последние новинки кино, игр, сериалов и прочего у нас, на Rutor.in. Не нужно использовать прокси, чтобы зайти на рутор, достаточно воспользоваться нашим ресурсом. Все новые фильмы, игры, сериалы, книги и музыка за 2013 и 2014 годы через торрент бесплатно. Скачивайте фильмы в хорошем качестве, игры для пк, xbox, playstation без регистрации. У нас вы найдете новые Зарубежные сериалы и Русские сериалы 2013, 2014, 2015 годов. Оставайтесь с нами, качайте любимые фильмы, игры, сериалы, книги и музыку.
cron