img image001 image001 image001 image001 image001 image001 image001 image001 image001 image001 image001 image001 image001 image001 image001

Planets Sun Sun Sun
Статистика раздачи
Автор: PriZraK | Размер: 2.18 ГБ | Добавлен: 29 ноя 2016
Раздают: 45    Качают: 10
Скачать торрент
Скачать торрент
Описание торрента

СообщениеДобавлено: 29 ноя 2016 


Информация о фильме
Оригинальное название: Научи меня жить
Год выпуска: 2016
Жанр: Психологический детектив
Режиссер: Валентин Донсков
В ролях: Кирилл Кяро, Алексей Барабаш, Анна Попова, Елена Подкаминская, Игорь Скляр, Юрий Цурило, Андрей Казаков, Василий Мищенко, Елена Яковлева, Андрей Фролов, Роман Полянский, Екатерина Волкова (I), Виктор Потапешкин, Яков Шамшин
О фильме:
Жестокая, таинственная и неуловимая банда «Черная кошка» из культового советского фильма «Место встречи изменить нельзя», действительно, существовала. Более того, она была не одна. Их называли по-разному: «банда Митина», «Красногорские оборотни», «Черная кошка». Бандиты вышли на улицы Москвы прямо с Доски почёта оборонного завода Красногорска. Это были молодые парни — спортсмены, комсомольцы, ударники труда — лучшие представители передовой советской молодежи. Но это все днем… А ночью эти «передовые» ребята совершали дерзкие налеты, грабежи и убийства, несколько лет державшие в страхе всю страну. Их видели в лицо, их знали по именам, но никак не могли поймать, потому что никому не приходило в голову искать бандитов в рядах образцово-показательных комсомольцев

Страна: Россия
Студия: Кинокомпания «Amalgama Studio»
Продолжительность: 6 x ~ 00:50:00
Перевод: Не требуется
Файл
Формат: avi
Качество: WEB-DLRip
Видео: XviD build 73, 656x368 (16:9), 25.000 fps, ~ 910 Kbps (~ 0.150 bit/pixel)
Звук: 48.0 kHz, MP3, 2/0 ch, 128 kbps
Субтитры: нет
General
Complete name : Nauchi.Menja.Zhitj.2016.XviD.WEB-DLRip.GeneralFilmSerija.01.avi
Format : AVI
Format/Info : Audio Video Interleave
File size : 372 MiB
Duration : 49mn 39s
Overall bit rate : 1 048 Kbps
Writing application : VirtualDubMod 1.5.10.3 | www.virtualdub-fr.org || (build 2550/release)
Writing library : VirtualDubMod build 2550/release
Video
ID : 0
Format : MPEG-4 Visual
Format profile : Advanced Simple@L5
Format settings, BVOP : 1
Format settings, QPel : Yes
Format settings, GMC : No warppoints
Format settings, Matrix : Custom
Codec ID : XVID
Codec ID/Hint : XviD
Duration : 49mn 39s
Bit rate : 910 Kbps
Width : 656 pixels
Height : 368 pixels
Display aspect ratio : 16:9
Frame rate : 25.000 fps
Color space : YUV
Chroma subsampling : 4:2:0
Bit depth : 8 bits
Scan type : Progressive
Compression mode : Lossy
Bits/(Pixel*Frame) : 0.151
Stream size : 323 MiB (87%)
Writing library : XviD 73
Audio
ID : 1
Format : MPEG Audio
Format version : Version 1
Format profile : Layer 3
Codec ID : 55
Codec ID/Hint : MP3
Duration : 49mn 39s
Bit rate mode : Constant
Bit rate : 128 Kbps
Channel(s) : 2 channels
Sampling rate : 48.0 KHz
Compression mode : Lossy
Stream size : 45.5 MiB (12%)
Alignment : Aligned on interleaves
Interleave, duration : 40 ms (1.00 video frame)
Interleave, preload duratio : 504 ms
Writing library : LAME3.99r
Encoding settings : -m s -V 4 -q 0 -lowpass 17 -b 128




Релиз от:



   Похожие торренты   Торрент   Размер 
В этой теме нет новых непрочитанных сообщений. Научи меня жить [01-12 из 12] (2016) WEB-DLRip от Generalfilm | КПК

68 | 5

2.47 ГБ

В этой теме нет новых непрочитанных сообщений. Научи меня жить [01-02 из 12] (2016) HDTVRip от GeneralFilm

86 | 16

2.8 ГБ

В этой теме нет новых непрочитанных сообщений. Научи меня жить [01-02 из 12] (2016) HDTV 1080i от GeneralFilm

0 | 0

8.8 ГБ

В этой теме нет новых непрочитанных сообщений. Научи меня жить [01 из 12] (2016) HDTVRip 720p от GeneralFilm

3 | 1

5.17 ГБ

В этой теме нет новых непрочитанных сообщений. Научи меня жить [01 из 12] (2016) HDTVRip 720p от GeneralFilm

2 | 0

2.57 ГБ

В этой теме нет новых непрочитанных сообщений. Научи меня жить [01-12 из 12] (2016) WEB-DLRip-AVC от ExKinoRay

54 | 11

8.47 ГБ

В этой теме нет новых непрочитанных сообщений. Научи меня жить [01-08 из 12] (2016) WEB-DLRip от Files-x

280 | 142

4.66 ГБ




Вы не можете начинать темы
Вы не можете отвечать на сообщения
Вы не можете редактировать свои сообщения
Вы не можете удалять свои сообщения
Вы не можете добавлять вложения

Перейти:  
Для Мосгорсуда, Роскомнадзора и рекламодателей: mosgorsud-torrent[собачка]yandex.ru
 Вход
ppkBB3cker v.2 © 2008-2014 @ PPK
[ Time : 0.063s | 16 Queries | GZIP : Off ]

Торрент трекер RUTOR.IN, Не можете зайти на rutor.org? Какой новый адрес рутор? Какое зеркало рутор? Не работает rutor.org и зеркала? Тогда наш торрент специально для вас. Rutor.in неофициальное зеркало rutor. В случае если у Вас заблокирован rutor или вдруг Вы не можете на него зайти, то Вы без труда сможете скачать бесплатно и без рекламы последние новинки кино, игр, сериалов и прочего у нас, на Rutor.in. Не нужно использовать прокси, чтобы зайти на рутор, достаточно воспользоваться нашим ресурсом. Все новые фильмы, игры, сериалы, книги и музыка за 2013 и 2014 годы через торрент бесплатно. Скачивайте фильмы в хорошем качестве, игры для пк, xbox, playstation без регистрации. У нас вы найдете новые Зарубежные сериалы и Русские сериалы 2013, 2014, 2015 годов. Оставайтесь с нами, качайте любимые фильмы, игры, сериалы, книги и музыку.
cron