img image001 image001 image001 image001 image001 image001 image001 image001 image001 image001 image001 image001 image001 image001 image001

Planets Sun Sun Sun
Статистика раздачи
Автор: PriZraK | Размер: 744.88 МБ | Добавлен: 29 ноя 2016
Раздают: 2    Качают: 0
Скачать торрент
Скачать торрент
Описание торрента

СообщениеДобавлено: 29 ноя 2016 


Информация о фильме
Оригинальное название: Золотой транзит
Год выпуска: 2016
Жанр: Боевик, приключения
Режиссер: Алексей Козлов
В ролях: Алексей Манцыгин, Вадим Андреев, Александр Устюгов, Яков Шамшин, Любовь Константинова, Владимир Постников, Даниил Кокин, Иван Немцов, Игорь Рудинский, Николай Пономаренко (II), Александр Соколов (XV), Мария Андрюшина, Алексей Одинг
О фильме:
1924 год.В маленький городок Чуйск на границе с Китаем возвращается бывший золотопромышленник Астахов, сбежавший во время революции. Сопровождает его чекист Пашка Самсонов. Астахов должен указать, где было спрятано все его золото, при этом 25 процентов он оставляет себе, а остальное отдает государству. Правда, мало кто знает, что на самом деле Астахов приехал не столько за золотом, сколько за дочерью Машей, с которой ему пришлось расстаться семь лет назад. Астахов показывает тайник, мешки складируют в хранилище бывшего банка. Однако ночью драгоценный металл бесследно исчезает.
Страна: Россия
Студия: Студия «АВК» по заказу НТВ
Продолжительность: 2 х ~ 00:47:00
Перевод: Не требуется
Файл
Формат: avi
Качество: HDTVRip
Видео: XviD build 73, 720x400 (16:9), 25.000 fps, ~ 910 Kbps (~ 0.130 bit/pixel)
Звук: 48.0 kHz, MP3, 2/0 ch, 128 kbps
Субтитры: нет
General
Complete name : Zolotoj.Tranzit.2016.XviD.HDTVRip.GeneralFilmSerija.01.avi
Format : AVI
Format/Info : Audio Video Interleave
File size : 373 MiB
Duration : 49mn 46s
Overall bit rate : 1 047 Kbps
Writing application : VirtualDubMod 1.5.10.3 | www.virtualdub-fr.org || (build 2550/release)
Writing library : VirtualDubMod build 2550/release
Video
ID : 0
Format : MPEG-4 Visual
Format profile : Advanced Simple@L5
Format settings, BVOP : 1
Format settings, QPel : Yes
Format settings, GMC : No warppoints
Format settings, Matrix : Custom
Codec ID : XVID
Codec ID/Hint : XviD
Duration : 49mn 46s
Bit rate : 909 Kbps
Width : 720 pixels
Height : 400 pixels
Display aspect ratio : 16:9
Frame rate : 25.000 fps
Color space : YUV
Chroma subsampling : 4:2:0
Bit depth : 8 bits
Scan type : Progressive
Compression mode : Lossy
Bits/(Pixel*Frame) : 0.126
Stream size : 324 MiB (87%)
Writing library : XviD 73
Audio
ID : 1
Format : MPEG Audio
Format version : Version 1
Format profile : Layer 3
Codec ID : 55
Codec ID/Hint : MP3
Duration : 49mn 46s
Bit rate mode : Constant
Bit rate : 128 Kbps
Channel(s) : 2 channels
Sampling rate : 48.0 KHz
Compression mode : Lossy
Stream size : 45.6 MiB (12%)
Alignment : Aligned on interleaves
Interleave, duration : 40 ms (1.00 video frame)
Interleave, preload duratio : 504 ms
Writing library : LAME3.99r
Encoding settings : -m s -V 4 -q 0 -lowpass 17 -b 128


Релиз от:



   Похожие торренты   Торрент   Размер 
В этой теме нет новых непрочитанных сообщений. Золотой транзит [01-02 из 02] (2016) HDTVRip | КПК

15 | 2

442.34 МБ

В этой теме нет новых непрочитанных сообщений. Золотой транзит [01-02 из 02] (2016) HDTVRip от Files-x

99 | 6

1.27 ГБ

В этой теме нет новых непрочитанных сообщений. Золотой транзит [01-02 из 02] (2016) HDTVRip-AVC от Files-x

1 | 0

1.5 ГБ

В этой теме нет новых непрочитанных сообщений. Золотой транзит [01 из 02] (2016) HDTVRip-AVC от ExKinoRay

5 | 1

1.65 ГБ

В этой теме нет новых непрочитанных сообщений. Золотой транзит [01 из 02] (2016) HDTVRip 720p от MediaClub

35 | 1

2.52 ГБ

В этой теме нет новых непрочитанных сообщений. Таврида. Легенда о золотой колыбели (2015) HDTVRip от Generalfilm

94 | 5

547.2 МБ

В этой теме нет новых непрочитанных сообщений. Золотой граммофон. 20-я Церемония вручения народной премии [01 из 02] (2015) HDTVRip от GeneralFilm

332 | 44

1.47 ГБ




Вы не можете начинать темы
Вы не можете отвечать на сообщения
Вы не можете редактировать свои сообщения
Вы не можете удалять свои сообщения
Вы не можете добавлять вложения

Перейти:  
Для Мосгорсуда, Роскомнадзора и рекламодателей: mosgorsud-torrent[собачка]yandex.ru
 Вход
ppkBB3cker v.2 © 2008-2014 @ PPK
[ Time : 0.048s | 15 Queries | GZIP : Off ]

cron