img image001 image001 image001 image001 image001 image001 image001 image001 image001 image001 image001 image001 image001 image001 image001 image001

Planets Sun Sun Sun
Статистика раздачи
Автор: PriZraK | Размер: 1.46 ГБ | Добавлен: 25 дек 2016
Раздают: 20    Качают: 0
Скачать торрент
Скачать торрент
Описание торрента

СообщениеДобавлено: 25 дек 2016 


Информация о фильме
Оригинальное название: Холодное сердце
Год выпуска: 2016
Жанр: Мелодрама
Режиссер: Екатерина Двигубская
В ролях: Ксения Алфёрова, Мария Лисовая, Андрей Фролов (II), Виталий Кудрявцев, Екатерина Соломатина, Сергей Греков, Наталья Аринбасарова, Светлана Виноградова-Богатт
О фильме:
Анна (Ксения Алферова) и Михаил (Виталий Кудрявцев) – счастливые родители, их дочке Юле уже десять лет. Девочка родилась с пороком сердца и едва не умерла сразу после рождения. Родители окружили Юлю заботой, любовью и привыкли исполняли любые ее пожелания.После трагической гибели мужа Аня полностью посвящает себя дочери, работает сиделкой и даже не помышляет о личной жизни. Тем временем из капризного ребенка вырастает эгоистичная, бездушная и расчетливая особа, умело манипулирующая людьми (Мария Лисовая).Когда Аня встречает свою любовь – давнего друга муж Пашу (Андрей Фролов), взрослая дочь, привыкшая распоряжаться матерью, готова на все, чтобы не позволить ей стать счастливой.Есть ли пределы у материнской любви? И хватит ли Анне сил понять, что, отказываясь от собственного счастья, счастливым никого не сделать?

Страна: Россия
Студия: Кинокомпания «Русское»
Продолжительность: 2 x ~ 01:32:00
Перевод: Не требуется
Файл
Формат: avi
Качество: HDTVRip
Видео: XviD build 73, 688x384 (16:9), 25.000 fps, ~ 1020 Kbps (~ 0.155 bit/pixel)
Звук: 48.0 kHz, MP3, 2/0 ch, 128 kbps
Субтитры: нет
General
Complete name : Holodnoe.Serdce.2016.XviD.HDTVRip.GeneralFilmHolodnoe.Serdce.01.avi
Format : AVI
Format/Info : Audio Video Interleave
File size : 745 MiB
Duration : 1h 29mn
Overall bit rate : 1 161 Kbps
Writing application : VirtualDubMod 1.5.10.3 | www.virtualdub-fr.org || (build 2550/release)
Writing library : VirtualDubMod build 2550/release
Video
ID : 0
Format : MPEG-4 Visual
Format profile : Advanced Simple@L5
Format settings, BVOP : 1
Format settings, QPel : No
Format settings, GMC : No warppoints
Format settings, Matrix : Custom
Codec ID : XVID
Codec ID/Hint : XviD
Duration : 1h 29mn
Bit rate : 1 023 Kbps
Width : 688 pixels
Height : 384 pixels
Display aspect ratio : 16:9
Frame rate : 25.000 fps
Color space : YUV
Chroma subsampling : 4:2:0
Bit depth : 8 bits
Scan type : Progressive
Compression mode : Lossy
Bits/(Pixel*Frame) : 0.155
Stream size : 657 MiB (88%)
Writing library : XviD 73
Audio
ID : 1
Format : MPEG Audio
Format version : Version 1
Format profile : Layer 3
Codec ID : 55
Codec ID/Hint : MP3
Duration : 1h 29mn
Bit rate mode : Constant
Bit rate : 128 Kbps
Channel(s) : 2 channels
Sampling rate : 48.0 KHz
Compression mode : Lossy
Stream size : 82.2 MiB (11%)
Alignment : Aligned on interleaves
Interleave, duration : 40 ms (1.00 video frame)
Interleave, preload duratio : 504 ms
Writing library : LAME3.99r
Encoding settings : -m s -V 4 -q 0 -lowpass 17 -b 128



Релиз от:



   Похожие торренты   Торрент   Размер 
В этой теме нет новых непрочитанных сообщений. Холодное сердце [01-02 из 02] (2016) HDTV 1080i от GeneralFilm

10 | 14

10.29 ГБ

В этой теме нет новых непрочитанных сообщений. Холодное сердце [01-02 из 02] (2016) HDTVRip от Files-x

25 | 0

2.73 ГБ

В этой теме нет новых непрочитанных сообщений. Холодное сердце [01-02 из 02] (2016) HDTVRip-AVC от Files-x

7 | 2

2.76 ГБ

В этой теме нет новых непрочитанных сообщений. Холодное сердце / Das kalte Herz (2016) HDRip | L1

139 | 2

1.46 ГБ

В этой теме нет новых непрочитанных сообщений. Холодное сердце / Das kalte Herz (2016) BDRip 1080p | L1

13 | 0

9.32 ГБ

В этой теме нет новых непрочитанных сообщений. Холодное сердце / Frozen (2013) TS

432 | 17

1.36 ГБ

В этой теме нет новых непрочитанных сообщений. Отогрей мое сердце (2016) HDTVRip от GeneralFilm

37 | 0

744.74 МБ




Вы не можете начинать темы
Вы не можете отвечать на сообщения
Вы не можете редактировать свои сообщения
Вы не можете удалять свои сообщения
Вы не можете добавлять вложения

Перейти:  
 Вход
ppkBB3cker v.2 © 2008-2014 @ PPK
[ Time : 0.043s | 17 Queries | GZIP : Off ]

cron