img image001 image001 image001 image001 image001 image001 image001 image001 image001 image001 image001 image001 image001 image001 image001 image001

Planets Sun Sun Sun
Статистика раздачи
Автор: PriZraK | Размер: 3.01 ГБ | Добавлен: 11 янв 2017
Раздают: 1    Качают: 3
Скачать торрент
Скачать торрент
Описание торрента

СообщениеДобавлено: 11 янв 2017 

Информация о фильме
Название: Шерлок
Оригинальное название: Sherlock
Год выхода: 2017
Жанр: Детектив, триллер
Режиссер: Ник Харран, Бенжамин Карон, Рэйчел Талалэй
В ролях: Бенедикт Камбербэтч, Мартин Фриман, Уна Стаббс, Лу Брили, Руперт Грэйвз, Джонатан Арис, Аманда Эббингтон, Наташа О’Кифф

О фильме:
Скотленд-Ярд занят расследованием загадочного дела, а вот Шерлока больше интересует одна, казалось бы, незначительная деталь: зачем кто-то планомерно уничтожает изображения бывшего премьер-министра Маргарет Тэтчер? Холмс пытается выяснить, чьих рук это дело - сумасшедшего, оказавшегося на свободе, или хладнокровного преступника. Есть еще одна головоломка для "мастера дедукции", разгадку которой стоит искать в прошлом Мэри Ватсон...
Страна: Великобритания
Продолжительность: 2 х 01:30:23
Перевод: Дублированый (Первый канал)

Содержание:
01: The Six Thatchers / Шесть Тэтчер
02: The Lying Detective / Шерлок при смерти
Файл
Качество: WEB- (AVC)
Видео: MPEG-4 AVC, ~ 1750 Кбит/с, 1024x576
Аудио: Русский (AC3, 2 ch, 192 Кбит/с), (AC3, 2 ch, 384 Кбит/с), английский (AC3, 6 ch, 384 Кбит/с)
Субтитры: Русские, английские

General
Unique ID : 250077699676515106643360078967494092977 (0xBC233688ADAFDB52A4CC5433A5FF28B1)
Complete name : D:Sherlock.2017.WEB-.AVC.ExKinoRaySherlock.S04E01.2017.WEB-.AVC.ExKinoRay.mkv
Format : Matroska
Format version : Version 2
File size : 1.44 GiB
Duration : 1 h 28 min
Overall bit rate : 2 328 kb/s
Movie name : Sherlock S04 E01 (2017) from ExKinoRay
Encoded date : UTC 2017-01-10 04:32:52
Writing application : mkvmerge v7.6.0 ('Garden of Dreams') 32bit built on Feb 11 2015 00:18:47
Writing library : libebml v1.3.1 + libmatroska v1.4.2
Cover : Yes
Attachments : Cover

Video
ID : 1
Format : AVC
Format/Info : Advanced Video Codec
Format profile : High@L4.1
Format settings, CABAC : Yes
Format settings, ReFrames : 12 frames
Codec ID : V_MPEG4/ISO/AVC
Duration : 1 h 28 min
Bit rate : 1 750 kb/s
Width : 1 024 pixels
Height : 576 pixels
Display aspect ratio : 16:9
Frame rate mode : Constant
Frame rate : 25.000 FPS
Color space : YUV
Chroma subsampling : 4:2:0
Bit depth : 8 bits
Scan type : Progressive
Bits/(Pixel*Frame) : 0.119
Stream size : 1.05 GiB (73%)
Title : Enigma
Writing library : x264 core 144 r2525 40bb568
Encoding settings : cabac=1 / ref=12 / deblock=1:-2:-2 / analyse=0x3:0x113 / me=umh / subme=10 / psy=1 / psy_rd=1.00:0.05 / mixed_ref=1 / me_range=32 / chroma_me=1 / trellis=2 / 8x8dct=1 / cqm=0 / deadzone=21,11 / fast_pskip=1 / chroma_qp_offset=-3 / threads=12 / lookahead_threads=2 / sliced_threads=0 / nr=0 / decimate=1 / interlaced=0 / bluray_compat=0 / constrained_intra=0 / bframes=9 / b_pyramid=2 / b_adapt=2 / b_bias=0 / direct=3 / weightb=1 / open_gop=0 / weightp=2 / keyint=250 / keyint_min=25 / scenecut=40 / intra_refresh=0 / rc_lookahead=40 / rc=2pass / mbtree=0 / bitrate=1750 / ratetol=1.0 / qcomp=0.60 / qpmin=0 / qpmax=51 / qpstep=4 / cplxblur=20.0 / qblur=0.5 / vbv_maxrate=50000 / vbv_bufsize=62500 / nal_hrd=none / filler=0 / ip_ratio=1.40 / pb_ratio=1.30 / aq=1:1.00
Default : Yes
Forced : No
Color range : Limited
Color primaries : BT.709
Transfer characteristics : BT.709
Matrix coefficients : BT.709

Audio #1
ID : 2
Format : AC-3
Format/Info : Audio Coding 3
Mode extension : CM (complete main)
Format settings, Endianness : Big
Codec ID : A_AC3
Duration : 1 h 28 min
Bit rate mode : Constant
Bit rate : 192 kb/s
Channel(s) : 2 channels
Channel positions : Front: L R
Sampling rate : 48.0 kHz
Frame rate : 31.250 FPS (1536 spf)
Compression mode : Lossy
Stream size : 121 MiB (8%)
Title : Dub
Language : Russian
Default : Yes
Forced : No

Audio #2
ID : 3
Format : AC-3
Format/Info : Audio Coding 3
Mode extension : CM (complete main)
Format settings, Endianness : Big
Codec ID : A_AC3
Duration : 1 h 28 min
Bit rate mode : Constant
Bit rate : 384 kb/s
Channel(s) : 6 channels
Channel positions : Front: L C R, Side: L R, LFE
Sampling rate : 48.0 kHz
Frame rate : 31.250 FPS (1536 spf)
Compression mode : Lossy
Stream size : 243 MiB (16%)
Language : English
Default : No
Forced : No

Text #1
ID : 4
Format : UTF-8
Codec ID : S_TEXT/UTF8
Codec ID/Info : UTF-8 Plain Text
Language : Russian
Default : No
Forced : No

Text #2
ID : 5
Format : UTF-8
Codec ID : S_TEXT/UTF8
Codec ID/Info : UTF-8 Plain Text
Language : English
Default : No
Forced : No





Без рекламы.

Релиз от:

Автор релиза:



   Похожие торренты   Торрент   Размер 
В этой теме нет новых непрочитанных сообщений. Шерлок / Sherlock [04x01 из 03] (2017) WEB-DLRip-AVC от ExKinoRay | Первый канал

0 | 0

1.44 ГБ

В этой теме нет новых непрочитанных сообщений. Шерлок / Sherlock [04x01-02 из 03] (2017) HDTVRip-AVC от ExKinoRay | Первый канал | Локализованная версия

1 | 2

2.99 ГБ

В этой теме нет новых непрочитанных сообщений. Шерлок / Sherlock [04x01 из 03] (2017) HDTVRip-AVC от ExKinoRay | Первый канал | Локализованная версия

1 | 2

1.49 ГБ

В этой теме нет новых непрочитанных сообщений. Шерлок / Sherlock [04x01 из 03] (2017) WEB-DLRip от Scarabey | Первый канал

182 | 25

1.45 ГБ

В этой теме нет новых непрочитанных сообщений. Шерлок / Sherlock [04x01 из 03] (2017) WEB-DLRip от Scarabey | Первый канал

94 | 20

745.46 МБ

В этой теме нет новых непрочитанных сообщений. Шерлок / Sherlock [04x01-02 из 03] (2017) WEB-DLRip от Scarabey | Первый канал

410 | 262

2.92 ГБ

В этой теме нет новых непрочитанных сообщений. Шерлок / Sherlock [04x01-02 из 03] (2017) HDTV 1080i от ExKinoRay | Первый канал | Локализованная версия

3 | 11

9.5 ГБ




Вы не можете начинать темы
Вы не можете отвечать на сообщения
Вы не можете редактировать свои сообщения
Вы не можете удалять свои сообщения
Вы не можете добавлять вложения

Перейти:  
 Вход
ppkBB3cker v.2 © 2008-2014 @ PPK
[ Time : 0.042s | 18 Queries | GZIP : Off ]

cron