img image001 image001 image001 image001 image001 image001 image001 image001 image001 image001 image001 image001 image001 image001 image001 image001

Planets Sun Sun Sun
Статистика раздачи
Автор: Nickolas3434 | Размер: 1.57 ГБ | Добавлен: 17 янв 2017
Раздают: 0    Качают: 0
Скачать торрент
Скачать торрент
Описание торрента

СообщениеДобавлено: 17 янв 2017 


Информация о фильме
Название: Голос
Оригинальное название: Voice
Год выхода: 2016
Жанр: Детектив, криминал
Режиссер: Ким Хон Сон
В ролях: Сон Чон Хак, Ли Хэ Ён, Квон Хён Джун, Сон Ын Со, Пэк Сон Хён, Ким Чжэ Ук
О фильме:
Му Джин Хёк был известным детективом, которому поручали расследование самых крупных дел. Но вся его жизнь пошла по наклонной после того, как его жену убили. Но даже сейчас он не оставляет попыток отыскать преступника.
Кан Квон Чжу окончила полицейскую академию с лучшими оценками. После выпуска она начала работать в колл-центре службы экстренной помощи 112. Однажды она слышит по телефону смерть собственного отца-полицейского. После этого события Квон Чжу уезжает в Америку, чтобы стать профессиональным профайлером (специалист по распознаванию лжи).
Вместе Джин Хёк и Квон Чжу начинают расследовать дела, чтобы в конце концов выйти на след убийцы, что стоит за смертью их родных.
Страна: Южная Корея
Продолжительность: ~ 70 мин. серия
Перевод: Любительский, двухголосый, закадровый (РГ "XDUB DORAMA" & "Колобок", перевод: ФСГ "Азалии", закадровый текст читали: Izanami и Den904)
Файл
Кодек: V_MPEG4/ISO/AVC
Качество: HDTVRip
Видео: 1280x720 (16:9), 29.970 fps, 2836 Kbps
Звук: mp3, 48.0 KHz, 2ch, 320 Kbps
Субтитры: Нет

General
Unique ID : 214126556408782062113803496972882453402 (0xA1174651ED86C7A9AE883178BAA6A39A)
Complete name : Голос-[e01].mkv
Format : Matroska
Format version : Version 2
File size : 1.57 GiB
Duration : 1h 9mn
Overall bit rate : 3 220 Kbps
Encoded date : UTC 2017-01-16 21:48:11
Writing application : mkvmerge v4.2.0 ('No Talking') сборка от Jul 28 2010 18:38:23
Writing library : libebml v1.0.0 + libmatroska v1.0.0
Video
ID : 1
Format : AVC
Format/Info : Advanced Video Codec
Format profile : Baseline@L3.1
Format settings, CABAC : No
Format settings, ReFrames : 1 frame
Muxing mode : Header stripping
Codec ID : V_MPEG4/ISO/AVC
Duration : 1h 9mn
Bit rate : 2 836 Kbps
Width : 1 280 pixels
Height : 720 pixels
Display aspect ratio : 16:9
Frame rate mode : Variable
Frame rate : 29.970 fps
Color space : YUV
Chroma subsampling : 4:2:0
Bit depth : 8 bits
Scan type : Progressive
Bits/(Pixel*Frame) : 0.103
Stream size : 1.38 GiB (88%)
Writing library : x264 core 142 r2389 956c8d8
Encoding settings : cabac=0 / ref=1 / deblock=0:0:0 / analyse=0:0 / me=dia / subme=0 / psy=1 / psy_rd=1.00:0.00 / mixed_ref=0 / me_range=16 / chroma_me=1 / trellis=0 / 8x8dct=0 / cqm=0 / deadzone=21,11 / fast_pskip=1 / chroma_qp_offset=0 / threads=3 / lookahead_threads=1 / sliced_threads=0 / nr=0 / decimate=1 / interlaced=0 / bluray_compat=0 / constrained_intra=0 / bframes=0 / weightp=0 / keyint=250 / keyint_min=25 / scenecut=0 / intra_refresh=0 / rc=crf / mbtree=0 / crf=23.0 / qcomp=0.60 / qpmin=0 / qpmax=69 / qpstep=4 / ip_ratio=1.40 / aq=0
Default : Yes
Forced : No
Audio
ID : 2
Format : MPEG Audio
Format version : Version 1
Format profile : Layer 3
Mode : Joint stereo
Muxing mode : Header stripping
Codec ID : A_MPEG/L3
Codec ID/Hint : MP3
Duration : 1h 9mn
Bit rate mode : Constant
Bit rate : 320 Kbps
Channel(s) : 2 channels
Sampling rate : 48.0 KHz
Compression mode : Lossy
Stream size : 159 MiB (10%)
Default : Yes
Forced : No

Релиз от: XDUB DORAMA & Колобок



   Похожие торренты   Торрент   Размер 
В этой теме нет новых непрочитанных сообщений. Голос / Voice (2016) [01 из 16] HDTVRip 720p | L2

0 | 0

2.85 ГБ

В этой теме нет новых непрочитанных сообщений. Голос / Voice / Boiseu [01-06 из 16] (2017) HDTVRip 720p | L2

0 | 0

8.26 ГБ

В этой теме нет новых непрочитанных сообщений. Голос из камня / Voice from the Stone (2017) WEB-DL 720p от FreeRutor | L1

37 | 0

3.06 ГБ

В этой теме нет новых непрочитанных сообщений. Я тебя услышу / Я слышу твой голос / I Hear Your Voice [S01] (2013) HDTVRip | STEPonee

65 | 54

11.53 ГБ

В этой теме нет новых непрочитанных сообщений. Голос из камня / Voice from the Stone (2017) BDRip 720p от ExKinoRay | D, L1 | iTunes

264 | 13

4.27 ГБ

В этой теме нет новых непрочитанных сообщений. Голос из камня / Voice from the Stone (2017) WEB-DLRip | L

736 | 24

1.33 ГБ

В этой теме нет новых непрочитанных сообщений. Голос из камня / Voice from the Stone (2017) WEB-DLRip 1080р | L

336 | 9

3.33 ГБ




Вы не можете начинать темы
Вы не можете отвечать на сообщения
Вы не можете редактировать свои сообщения
Вы не можете удалять свои сообщения
Вы не можете добавлять вложения

Перейти:  
 Вход
ppkBB3cker v.2 © 2008-2014 @ PPK
[ Time : 0.029s | 18 Queries | GZIP : Off ]

cron