img image001 image001 image001 image001 image001 image001 image001 image001 image001 image001 image001 image001 image001 image001 image001

Planets Sun Sun Sun

COVID-19 - Последняя информация о коронавирусе на сайте Минздрава


Статистика раздачи
Автор: Nickolas3434 | Размер: 2.16 ГБ | Добавлен: 23 янв 2017
Раздают: 1    Качают: 0
Скачать торрент
Скачать торрент
Описание торрента

СообщениеДобавлено: 23 янв 2017 


Информация о фильме
Название: Одиночество
Год выхода: 2016
Жанр: мелодрама
Режиссер: Виталий Бабенко
В ролях: Анна Леванова, Никита Тезин, Надежда Маркина, Людмила Гаврилова, Татьяна Ташкова, Александра Ровенских, Митя Лабуш, Арина Постникова, Иван Жвакин
О фильме:
Юная Арина не задумывалась о том, существует ли любовь с первого взгляда, она просто влюбилась. Внезапно, взаимно и навсегда. Свадьбу решили сыграть сразу после возвращения жениха Сергея из экспедиции.
Через несколько дней Сергей останется один в почти непроходимой пещере, заваленной после землетрясения. Спасатели считают Сергея погибшим, и никто, кроме Арины, не верит, что он вернётся...

Страна: Россия, "Русское"
Продолжительность: ~ 00:44:00 серия
Язык: Русский

Файл
Качество: SATRip-AVC
Видео: MPEG-4 AVC, ~ 1550 Кбит/с, 720x400
Звук: AC3, 2 ch, 192 Кбит/с


Релиз от:
General
Unique ID : 189607251830444289361910194643718530471 (0x8EA507450C0315CABDCC3ABA49F265A7)
Complete name : H:Одиночество\01 серия_Одиночество_rip by_Aleksan55.mkv
Format : Matroska
Format version : Version 2
File size : 561 MiB
Duration : 44mn 56s
Overall bit rate : 1 744 Kbps
Encoded date : UTC 2017-01-21 17:01:49
Writing application : mkvmerge v7.8.0 ('River Man') 32bit built on Apr 3 2015 12:11:22
Writing library : libebml v1.3.1 + libmatroska v1.4.2
Video
ID : 1
Format : AVC
Format/Info : Advanced Video Codec
Format profile : High@L4.1
Format settings, CABAC : Yes
Format settings, ReFrames : 14 frames
Codec ID : V_MPEG4/ISO/AVC
Duration : 44mn 56s
Bit rate : 1 550 Kbps
Width : 720 pixels
Height : 400 pixels
Display aspect ratio : 16:9
Frame rate mode : Constant
Frame rate : 25.000 fps
Color space : YUV
Chroma subsampling : 4:2:0
Bit depth : 8 bits
Scan type : Progressive
Bits/(Pixel*Frame) : 0.215
Stream size : 488 MiB (87%)
Writing library : x264 core 148 r2638 7599210
Encoding settings : cabac=1 / ref=14 / deblock=1:-1:-1 / analyse=0x3:0x133 / me=umh / subme=9 / psy=1 / psy_rd=1.00:0.15 / mixed_ref=0 / me_range=32 / chroma_me=1 / trellis=2 / 8x8dct=1 / cqm=0 / deadzone=21,11 / fast_pskip=0 / chroma_qp_offset=-3 / threads=3 / lookahead_threads=3 / sliced_threads=0 / nr=0 / decimate=0 / interlaced=0 / bluray_compat=0 / constrained_intra=0 / bframes=14 / b_pyramid=2 / b_adapt=1 / b_bias=0 / direct=3 / weightb=1 / open_gop=0 / weightp=2 / keyint=250 / keyint_min=25 / scenecut=40 / intra_refresh=0 / rc_lookahead=40 / rc=2pass / mbtree=1 / bitrate=1550 / ratetol=1.0 / qcomp=0.80 / qpmin=0 / qpmax=39 / qpstep=4 / cplxblur=20.0 / qblur=0.5 / ip_ratio=1.10 / aq=1:1.20
Default : Yes
Forced : No
Color range : Limited
Color primaries : BT.601 PAL
Transfer characteristics : BT.470 System B, BT.470 System G
Matrix coefficients : BT.601
Audio
ID : 2
Format : AC-3
Format/Info : Audio Coding 3
Mode extension : CM (complete main)
Format settings, Endianness : Big
Codec ID : A_AC3
Duration : 44mn 56s
Bit rate mode : Constant
Bit rate : 192 Kbps
Channel(s) : 2 channels
Channel positions : Front: L R
Sampling rate : 48.0 KHz
Frame rate : 31.250 fps (1536 spf)
Compression mode : Lossy
Stream size : 61.7 MiB (11%)
Default : Yes
Forced : No

   Похожие торренты   Торрент   Размер 
В этой теме нет новых непрочитанных сообщений. Одиночество [01-04 из 04] (2016) SATRip

9 | 0

2.34 ГБ

В этой теме нет новых непрочитанных сообщений. Спасатель [01-02 из 02] (2016) SATRip-AVC от Korsar

48 | 2

1.27 ГБ

В этой теме нет новых непрочитанных сообщений. Куба [01-24 из 24] (2016) SATRip-AVC от Korsar

57 | 12

14.16 ГБ

В этой теме нет новых непрочитанных сообщений. Куба [01-06 из 24] (2016) SATRip-AVC от Korsar

8 | 19

3.48 ГБ

В этой теме нет новых непрочитанных сообщений. Куба [01-20 из 24] (2016) SATRip-AVC от Korsar

0 | 0

11.77 ГБ

В этой теме нет новых непрочитанных сообщений. Куба [01-08 из 24] (2016) SATRip-AVC от Korsar

9 | 7

4.65 ГБ

В этой теме нет новых непрочитанных сообщений. Куба [01-12 из 24] (2016) SATRip-AVC от Korsar

0 | 0

7 ГБ




Вы не можете начинать темы
Вы не можете отвечать на сообщения
Вы не можете редактировать свои сообщения
Вы не можете удалять свои сообщения
Вы не можете добавлять вложения

Перейти:  
Контактная информация: rstracker[пёсик]yandex.ru
 Вход
ppkBB3cker v.2 © 2008-2014 @ PPK
[ Time : 0.034s | 15 Queries | GZIP : Off ]

cron