img image001 image001 image001 image001 image001 image001 image001 image001 image001 image001 image001 image001 image001 image001 image001 image001

Planets Sun Sun Sun
Статистика раздачи
Автор: PriZraK | Размер: 4 ГБ | Добавлен: 15 фев 2017
Раздают: 2    Качают: 0
Скачать торрент
Скачать торрент
Описание торрента

СообщениеДобавлено: 15 фев 2017 

Информация о фильме
Название: Участок лейтенанта Качуры. Фильм 4. Чёрная паутина [01-04 из 04]
Год выхода: 2015
Жанр: Детектив
Режиссер: Четвериков Игорь
В ролях: Павел Харланчук, Валентина Гарцуева, Константин Михаленко, Александр Жданович, Сергей Власов, Сергей Чекерес, Андрей Сенькин, Андрей Карако, Александр Овчинников, Татьяна Чердынцева, Роман Подоляко, Артур Шуляк, Егор Кучиц, Наталья Горбатенко, Олеся Грибок и др.
О фильме:
Очередное дело старшего лейтенанта Качуры начинается с обнаружения на железной дороге трупа неизвестного мужчины. В сумке убитого эксперты обнаруживают остатки неизвестного синтетического наркотика, используемого для кустарного приготовления «спайсов», распространение которых уже вышло за границы района и области. Расследованием преступления занимается начальник следственного отдела майор Терешко и его подчинённые, в числе которых – Карина Бартош, новый молодой следователь из Минска, и, конечно же, участковый Андрей Качура. Параллельно с расследованием инцидента на железной дороге, Бартош и Качура занимаются поиском старшеклассницы Вики Красовской, пропавшей при невыясненных обстоятельствах... Дело принимает трагический оборот, когда в маленьком тихом Заречье от передозировки злосчастным наркотическим веществом гибнут двое подростков. Майор Терешко и его подчинённые бросают все силы на поиски распространителей смертоносного зелья, но найти злоумышленников непросто – изощрённым преступником, создавшим свою паутину наркобизнеса, оказывается человек, которого сложно в чём-либо заподозрить. Человек, скрывающийся под маской...
Доп. информация: Запись потока *.ts с наземного цифрового телеканала "СТВ" (Столичное телевидение)
Автор сценария: Залужный Валентин Иванович при участии Игоря Четверикова
Оператор-постановщик: Александр Смоляк
Художник-постановщик: Михаил Кузьмин
Композитор: Владимир Сивицкий

Благодарность: за помощь с недостающим материалом Bartimeyse и PavelDAS. Обоим большое спасибо!
Страна: Республика Беларусь
Студия: Беларусьфильм
Продолжительность: 00:52:03
Перевод: не требует
Файл
Кодек: AVC (H264)
Качество: DVB
Видео: MPEG4 Video (H264) 720(1047)x576 (16:9) 25fps, 2 359 kb/s
Звук: MPEG Audio 48000Hz stereo 256kbps
Семпл
Код:
General
ID                             : 1 (0x1)
Complete name                  : D:Новая  земля 2Художественные фильмыУчасток лейтенанта Качуры. Чёрная паутина (2015)Участок лейтенанта Качуры. Фильм 4. Чёрная паутина (2015)Участок лейтенанта Качуры. Чёрная паутина. С1 (2015).ts
Format                         : MPEG-TS
File size                      : 1.00 GiB
Duration                       : 52 min
Overall bit rate mode          : Variable
Overall bit rate               : 2 754 kb/s
Video
ID                             : 401 (0x191)
Menu ID                        : 4 (0x4)
Format                         : AVC
Format/Info                    : Advanced Video Codec
Format profile                 : Main@L3
Format settings, CABAC         : Yes
Format settings, ReFrames      : 4 frames
Codec ID                       : 27
Duration                       : 52 min
Bit rate                       : 2 359 kb/s
Width                          : 720 pixels
Height                         : 576 pixels
Display aspect ratio           : 16:9
Frame rate                     : 25.000 FPS
Standard                       : PAL
Color space                    : YUV
Chroma subsampling             : 4:2:0
Bit depth                      : 8 bits
Scan type                      : MBAFF
Scan type, store method        : Separated fields
Scan order                     : Top Field First
Bits/(Pixel*Frame)             : 0.228
Stream size                    : 878 MiB (86%)
Color range                    : Limited
Color primaries                : BT.601 PAL
Transfer characteristics       : BT.470 System B, BT.470 System G
Matrix coefficients            : BT.601
Audio
ID                             : 402 (0x192)
Menu ID                        : 4 (0x4)
Format                         : MPEG Audio
Format version                 : Version 1
Format profile                 : Layer 2
Codec ID                       : 3
Duration                       : 52 min
Bit rate mode                  : Constant
Bit rate                       : 256 kb/s
Channel(s)                     : 2 channels
Sampling rate                  : 48.0 kHz
Compression mode               : Lossy
Stream size                    : 95.3 MiB (9%)
Language                       : English




   Похожие торренты   Торрент   Размер 
В этой теме нет новых непрочитанных сообщений. Участок лейтенанта Качуры / Чёрная паутина (4 фильм) [01 из 04] (2015) SATRip от MegaPeer

0 | 0

1.37 ГБ

В этой теме нет новых непрочитанных сообщений. Участок лейтенанта Качуры / Чёрная паутина (4 фильм) [01 из 04] (2015) SATRip от MegaPeer

17 | 3

2.73 ГБ

В этой теме нет новых непрочитанных сообщений. Чёрная паутина ( Участок лейтенанта Качуры ) [01-04 из 04] (2016) SATRip-AVC от Korsar

5 | 1

2.53 ГБ

В этой теме нет новых непрочитанных сообщений. Государственная граница. Фильм 12. Ложная цель (2015) DVB от AND03AND

60 | 43

1.79 ГБ

В этой теме нет новых непрочитанных сообщений. Чёрная паутина / Easton's Article (2012) WEB-DLRip | НТВ+

13 | 5

1.45 ГБ

В этой теме нет новых непрочитанных сообщений. Чёрная паутина / Easton's Article (2012) HDRip(AVC) от ClubTorrent | P2

0 | 2

1.51 ГБ

В этой теме нет новых непрочитанных сообщений. Чёрная паутина / Easton's Article / Black Web (2012) WEB-DL 720p от CINEMANIA | НТВ+

1 | 3

2.55 ГБ




Вы не можете начинать темы
Вы не можете отвечать на сообщения
Вы не можете редактировать свои сообщения
Вы не можете удалять свои сообщения
Вы не можете добавлять вложения

Перейти:  
 Вход
ppkBB3cker v.2 © 2008-2014 @ PPK
[ Time : 0.039s | 18 Queries | GZIP : Off ]

cron