img image001 image001 image001 image001 image001 image001 image001 image001 image001 image001 image001 image001 image001 image001 image001 image001

Planets Sun Sun Sun
Статистика раздачи
Автор: PriZraK | Размер: 30.93 ГБ | Добавлен: 20 фев 2017
Раздают: 15    Качают: 9
Скачать торрент
Скачать торрент
Описание торрента

СообщениеДобавлено: 20 фев 2017 

Континуум / Continuum
Страна: Канада
Производство: Reunion Pictures, Shaw Media
Год выпуска: 2012-2015
Сезоны: 1-4
Жанр: фантастика, боевик, триллер
Продолжительность: 42х ~00:44:00
Режиссеры: Пэт Уильямс, Дэвид Фрэйзи, Уильям Варинг
Авторы сценария: Саймон Бэрри, Джереми Смит, Джонатан Уолкер
В ролях: Рэйчел Николс, Эрик Кнудсен, Виктор Уэбстер, Стивен Лобо, Роджер Р. Кросс, Лувия Петерсен, Омари Ньютон, Лекса Дойг
Описание: Группа террористов-фанатиков, избежавшая казни в 2077 году, перемещается в наше время вместе с преследующим их полицейским Кирой Камерон...

Перевод: Профессиональный (многоголосый, закадровый) | LostFilm
Субтитры: нет

Качество: BDRip | исходник Континуум / Continuum 1080p BD-Remux HDCLUB
Формат: AVI
Видео кодек: XviD
Аудио кодек: АС3
Видео: 704x400 (16:9), 23.976 fps, XviD build 73 ~2 000 kbps avg
Аудио: 48.0 kHz, AC3 Dolby Digital, 3/2 (L,C,R,l,r) + LFE ch, ~384 kbps
Дата премьеры (мир): 27 мая 2012

Релиз от: tеko
General
Complete name : s01e01_A.Stitch.In.Time.avi
Format : AVI
Format/Info : Audio Video Interleave
File size : 753 MiB
Duration : 43mn 59s
Overall bit rate : 2 393 Kbps
Writing application : VirtualDubMod 1.5.10.3 | (build 2550/release)
Writing library : VirtualDubMod build 2550/release
Video
ID : 0
Format : MPEG-4 Visual
Format profile : Advanced Simple@L5
Format settings, BVOP : 2
Format settings, QPel : No
Format settings, GMC : No warppoints
Format settings, Matrix : Custom
Codec ID : XVID
Codec ID/Hint : XviD
Duration : 43mn 59s
Bit rate : 2 000 Kbps
Width : 704 pixels
Height : 400 pixels
Display aspect ratio : 16:9
Frame rate : 23.976 (23976/1000) fps
Color space : YUV
Chroma subsampling : 4:2:0
Bit depth : 8 bits
Scan type : Progressive
Compression mode : Lossy
Bits/(Pixel*Frame) : 0.296
Stream size : 629 MiB (84%)
Writing library : XviD 73
Audio
ID : 1
Format : AC-3
Format/Info : Audio Coding 3
Mode extension : CM (complete main)
Format settings, Endianness : Big
Codec ID : 2000
Duration : 43mn 59s
Bit rate mode : Constant
Bit rate : 384 Kbps
Channel(s) : 6 channels
Channel positions : Front: L C R, Side: L R, LFE
Sampling rate : 48.0 KHz
Frame rate : 31.250 fps (1536 spf)
Compression mode : Lossy
Stream size : 121 MiB (16%)
Alignment : Split accross interleaves
Interleave, duration : 42 ms (1.00 video frame)
Interleave, preload duratio : 500 ms



   Похожие торренты   Торрент   Размер 
В этой теме нет новых непрочитанных сообщений. Континуум / Continuum [S04] (2015) BDRip 720p | LostFilm, NewStudio

154 | 60

19.82 ГБ

В этой теме нет новых непрочитанных сообщений. Континуум / Continuum [S01-03] (2012-2014) WEB-DLRip | LostFilm

117 | 84

17.07 ГБ

В этой теме нет новых непрочитанных сообщений. Континуум / Continuum [S01-02] (2012-2013) WEB-DLRip | LostFilm

44 | 72

11.2 ГБ

В этой теме нет новых непрочитанных сообщений. Континуум / Continuum [S04] (2015) WEB-DLRip | КПК | LostFilm

80 | 13

1.2 ГБ

В этой теме нет новых непрочитанных сообщений. Континуум / Continuum [01x01 из 6] (2015) WEB-DLRip | LostFilm

333 | 15

544.38 МБ

В этой теме нет новых непрочитанных сообщений. Континуум / Continuum [S01-03] (2012-2014) HDRip, WEB-DLRip от Generalfilm | КПК | LostFilm

177 | 104

7 ГБ

В этой теме нет новых непрочитанных сообщений. Континуум / Continuum [S02] (2013) BDRip 720p | LostFilm, NewStudio

9 | 25

48.61 ГБ




Вы не можете начинать темы
Вы не можете отвечать на сообщения
Вы не можете редактировать свои сообщения
Вы не можете удалять свои сообщения
Вы не можете добавлять вложения

Перейти:  
 Вход
ppkBB3cker v.2 © 2008-2014 @ PPK
[ Time : 0.042s | 16 Queries | GZIP : Off ]

cron