img image001 image001 image001 image001 image001 image001 image001 image001 image001 image001 image001 image001 image001 image001 image001

Planets Sun Sun Sun

COVID-19 - Последняя информация о коронавирусе на сайте Минздрава


Статистика раздачи
Автор: PriZraK | Размер: 30.93 ГБ | Добавлен: 20 фев 2017
Раздают: 14    Качают: 9
Скачать торрент
Скачать торрент
Описание торрента

СообщениеДобавлено: 20 фев 2017 

Континуум / Continuum
Страна: Канада
Производство: Reunion Pictures, Shaw Media
Год выпуска: 2012-2015
Сезоны: 1-4
Жанр: фантастика, боевик, триллер
Продолжительность: 42х ~00:44:00
Режиссеры: Пэт Уильямс, Дэвид Фрэйзи, Уильям Варинг
Авторы сценария: Саймон Бэрри, Джереми Смит, Джонатан Уолкер
В ролях: Рэйчел Николс, Эрик Кнудсен, Виктор Уэбстер, Стивен Лобо, Роджер Р. Кросс, Лувия Петерсен, Омари Ньютон, Лекса Дойг
Описание: Группа террористов-фанатиков, избежавшая казни в 2077 году, перемещается в наше время вместе с преследующим их полицейским Кирой Камерон...

Перевод: Профессиональный (многоголосый, закадровый) | LostFilm
Субтитры: нет

Качество: BDRip | исходник Континуум / Continuum 1080p BD-Remux HDCLUB
Формат: AVI
Видео кодек: XviD
Аудио кодек: АС3
Видео: 704x400 (16:9), 23.976 fps, XviD build 73 ~2 000 kbps avg
Аудио: 48.0 kHz, AC3 Dolby Digital, 3/2 (L,C,R,l,r) + LFE ch, ~384 kbps
Дата премьеры (мир): 27 мая 2012

Релиз от: tеko
General
Complete name : s01e01_A.Stitch.In.Time.avi
Format : AVI
Format/Info : Audio Video Interleave
File size : 753 MiB
Duration : 43mn 59s
Overall bit rate : 2 393 Kbps
Writing application : VirtualDubMod 1.5.10.3 | (build 2550/release)
Writing library : VirtualDubMod build 2550/release
Video
ID : 0
Format : MPEG-4 Visual
Format profile : Advanced Simple@L5
Format settings, BVOP : 2
Format settings, QPel : No
Format settings, GMC : No warppoints
Format settings, Matrix : Custom
Codec ID : XVID
Codec ID/Hint : XviD
Duration : 43mn 59s
Bit rate : 2 000 Kbps
Width : 704 pixels
Height : 400 pixels
Display aspect ratio : 16:9
Frame rate : 23.976 (23976/1000) fps
Color space : YUV
Chroma subsampling : 4:2:0
Bit depth : 8 bits
Scan type : Progressive
Compression mode : Lossy
Bits/(Pixel*Frame) : 0.296
Stream size : 629 MiB (84%)
Writing library : XviD 73
Audio
ID : 1
Format : AC-3
Format/Info : Audio Coding 3
Mode extension : CM (complete main)
Format settings, Endianness : Big
Codec ID : 2000
Duration : 43mn 59s
Bit rate mode : Constant
Bit rate : 384 Kbps
Channel(s) : 6 channels
Channel positions : Front: L C R, Side: L R, LFE
Sampling rate : 48.0 KHz
Frame rate : 31.250 fps (1536 spf)
Compression mode : Lossy
Stream size : 121 MiB (16%)
Alignment : Split accross interleaves
Interleave, duration : 42 ms (1.00 video frame)
Interleave, preload duratio : 500 ms

   Похожие торренты   Торрент   Размер 
В этой теме нет новых непрочитанных сообщений. Континуум / Continuum [сезон 1-4] (2012-2015) BDRip 1080

2 | 5

177.41 ГБ

В этой теме нет новых непрочитанных сообщений. Звездные врата: Континуум / Stargate: Continuum (2008) BDRip 1080p | P

98 | 15

4.35 ГБ

В этой теме нет новых непрочитанных сообщений. Пространство / The Expanse [S01] (2015) BDRip от qqss44 | LostFilm

78 | 11

7.12 ГБ

В этой теме нет новых непрочитанных сообщений. Слепое пятно / Blindspot [S01] (2015) BDRip | AlexFilm, LostFilm

19 | 13

21.73 ГБ

В этой теме нет новых непрочитанных сообщений. В пустыне смерти / Into the Badlands [S01] (2015) BDRip от qqss44 | LostFilm

1 | 3

3.58 ГБ

В этой теме нет новых непрочитанных сообщений. Хроники Франкенштейна / The Frankenstein Chronicles [S01] (2015) BDRip 1080p | Showjet, Lostfilm, Jaskier

7 | 4

21.31 ГБ

В этой теме нет новых непрочитанных сообщений. Пространство / The Expanse [S01] (2015-2016) BDRip HEVC 1080p | Jaskier, Lostfilm, Alexfilm, Baibako, OMSKBIRD records, HamsterStudio

26 | 7

30.85 ГБ




Вы не можете начинать темы
Вы не можете отвечать на сообщения
Вы не можете редактировать свои сообщения
Вы не можете удалять свои сообщения
Вы не можете добавлять вложения

Перейти:  
Контактная информация: rstracker[пёсик]yandex.ru
cron
 Вход
ppkBB3cker v.2 © 2008-2014 @ PPK
[ Time : 0.030s | 18 Queries | GZIP : Off ]

cron