img image001 image001 image001 image001 image001 image001 image001 image001 image001 image001 image001 image001 image001 image001 image001 image001

Planets Sun Sun Sun
Статистика раздачи
Автор: PriZraK | Размер: 31.35 ГБ | Добавлен: 21 фев 2017
Раздают: 3    Качают: 7
Скачать торрент
Скачать торрент
Описание торрента

СообщениеДобавлено: 21 фев 2017 

Болота / Пляжный коп / The Glades
Страна: США
Производство: Grand Productions Inc., Fox Television Studios, Innuendo Productions
Год выпуска: 2010-2013
Сезоны: 1-4
Жанр: боевик, драма, криминал, детектив
Продолжительность: 49х ~00:47:00
Режиссеры: Гари А. Рэндолл, Эрик Ланёвилль, Келли Макин
Авторы сценария: Клифтон Кэмпбелл, Том Гарригас, Луис Джонсон
В ролях: Мэтт Пассмор, Киле Санчес, Карлос Гомес, Джордан Уолл, Мишель Херд, Юрайа Шелтон, Анхель Луис Эрнандес, Алексис Уиндсор
Описание: Сериал рассказывает о Джиме Лонгворте, детективе из Чикаго. После ошибочных обвинений в интрижке с женой капитана, он переехал в маленький городок во Флориде, где гольф и солнце в изобилии, а преступность, казалось бы, сведена к минимуму. Однако жизнь в городке не такая прекрасная, как виделось с первого взгляда...

Перевод: Профессиональный (полное дублирование) | ТВ3
Субтитры: нет

Качество: WEB-DLRip
Формат: AVI
Видео кодек: XviD
Аудио кодек: АС3
Видео: 704x400 (16:9), 25.000 fps, XviD build 73 ~2 000 kbps avg
Аудио: 48.0 kHz, AC3 Dolby Digital, 2/0 (L,R) ch, ~192 kbps
Дата премьеры (мир): 11 июля 2010
Релиз от: tеko
General
Complete name : s01e01_Pilot.avi
Format : AVI
Format/Info : Audio Video Interleave
File size : 732 MiB
Duration : 46mn 29s
Overall bit rate : 2 201 Kbps
Writing application : VirtualDubMod 1.5.10.3 | (build 2550/release)
Writing library : VirtualDubMod build 2550/release
Video
ID : 0
Format : MPEG-4 Visual
Format profile : Advanced Simple@L5
Format settings, BVOP : 2
Format settings, QPel : No
Format settings, GMC : No warppoints
Format settings, Matrix : Custom
Codec ID : XVID
Codec ID/Hint : XviD
Duration : 46mn 29s
Bit rate : 2 000 Kbps
Width : 704 pixels
Height : 400 pixels
Display aspect ratio : 16:9
Frame rate : 25.000 fps
Color space : YUV
Chroma subsampling : 4:2:0
Bit depth : 8 bits
Scan type : Progressive
Compression mode : Lossy
Bits/(Pixel*Frame) : 0.284
Stream size : 665 MiB (91%)
Writing library : XviD 73
Audio
ID : 1
Format : AC-3
Format/Info : Audio Coding 3
Mode extension : CM (complete main)
Format settings, Endianness : Big
Codec ID : 2000
Duration : 46mn 29s
Bit rate mode : Constant
Bit rate : 192 Kbps
Channel(s) : 2 channels
Channel positions : Front: L R
Sampling rate : 48.0 KHz
Frame rate : 31.250 fps (1536 spf)
Compression mode : Lossy
Stream size : 63.8 MiB (9%)
Alignment : Split accross interleaves
Interleave, duration : 40 ms (1.00 video frame)
Interleave, preload duratio : 500 ms



   Похожие торренты   Торрент   Размер 
В этой теме нет новых непрочитанных сообщений. Глэйдс / Болота / The Glades [S01-04] (2010-2013) HDTVRip, WEB-DLRip | P2, L2

5 | 14

20.81 ГБ

В этой теме нет новых непрочитанных сообщений. Пляжный коп / Болота / Глейдс / The Glades [S03] (2013) WEB-DL 720p от CasStudio | ТВ3

0 | 0

14.01 ГБ

В этой теме нет новых непрочитанных сообщений. Пляжный коп / Болота / Глейдс / The Glades [S03] (2013) WEB-DL 720p от CasStudio | ТВ3

2 | 0

14.01 ГБ

В этой теме нет новых непрочитанных сообщений. Пляжный коп / Болота, Глейдс / The Glades [S02] (2012) WEB-DL 720p от CasStudio | ТВ3

0 | 0

19.09 ГБ

В этой теме нет новых непрочитанных сообщений. Пляжный коп / Болота / Глейдс / The Glades [S03] (2012) WEB-DL 720p от CasStudio | ТВ3

2 | 0

14.01 ГБ

В этой теме нет новых непрочитанных сообщений. Пляжный коп / Болота, Глейдс / The Glades [S01] (2011) WEB-DL 720p от CasStudio | ТВ3

4 | 0

19.1 ГБ

В этой теме нет новых непрочитанных сообщений. Тайны Чапман. Идите вы в болота (Эфир от 21.06.2018) (Рен ТВ) [2018, документальный, WEB-DLRip]

8 | 0

763.01 МБ




Вы не можете начинать темы
Вы не можете отвечать на сообщения
Вы не можете редактировать свои сообщения
Вы не можете удалять свои сообщения
Вы не можете добавлять вложения

Перейти:  
 Вход
ppkBB3cker v.2 © 2008-2014 @ PPK
[ Time : 0.028s | 18 Queries | GZIP : Off ]

cron