img image001 image001 image001 image001 image001 image001 image001 image001 image001 image001 image001 image001 image001 image001 image001
Planets Sun Sun Sun
Статистика раздачи
Автор: Nickolas3434 | Размер: 51.18 ГБ | Добавлен: 18 мар 2017
Раздают: 28    Качают: 25
Скачать торрент
Скачать торрент
Описание торрента

СообщениеДобавлено: 18 мар 2017 

Во все тяжкие / Breaking Bad
Страна: США
Производство: American Movie Classics (AMC), Gran Via, High Bridge Productions, Sony Pictures Television
Год выпуска: 2008-2013
Сезоны: 1-5
Жанр: триллер, драма, криминал
Продолжительность: 62х ~00:49:00
Режиссеры: Мишель МакЛарен, Адам Бернштейн, Винс Гиллиган
Авторы сценария: Винс Гиллиган, Питер Гулд, Джордж Мастрас
В ролях: Брайан Крэнстон, Анна Ганн, Аарон Пол, Дин Норрис, Б. Брандт, АрДжей Митти, Б. Оденкёрк, Джанкарло Эспозито, Джонатан Бэнкс
Описание: Школьный учитель химии Уолтер Уайт узнаёт, что болен раком лёгких. Учитывая сложное финансовое состояние дел семьи, а также перспективы, Уолтер решает заняться изготовлением метамфетамина. Для этого он привлекает своего бывшего ученика Джесси Пинкмана, когда-то исключённого из школы при активном содействии Уайта. Пинкман сам занимался «варкой мета», но накануне, в ходе рейда УБН, он лишился подельника и лаборатории…

Перевод: Профессиональный (дублированный) | студия Selena
Субтитры: нет

Качество: BDRip
Формат: AVI
Видео кодек: XviD
Аудио кодек: АС3
Видео №1 (сезоны 1-3): 720x400 (16:9), 23.976 fps, XviD ~1 820 kbps avg
Видео №2 (сезоны 4-5): 704x400 (16:9), 23.976 fps, XviD ~1 820 kbps avg
Аудио №1: 48.0 kHz, AC3 Dolby Digital, 2/0 (L,R) ch, ~192 kbps | RUS / DUB
Аудио №2: 48.0 kHz, AC3 Dolby Digital, 3/2 (L,C,R,l,r) + LFE ch, ~384 kbps | ENG
Дата премьеры (мир): 20 января 2008
Дата премьеры (РФ): 17 марта 2011


Приз Золотой глобус, 2014 год
» Лучший драматический сериал
» Лучшая мужская роль на ТВ (драма) / Брайан Крэнстон

s01e01 - была показана прокатная версия в дубляже, которая короче расширенной на 10 минут. В раздаче расширенная версия со вставками перевода Lostfilm.
s02e02 - канал Че вырезал пару фраз из дубляжа, на них - перевод Lostfilm
s02e12 - канал Че вырезал пару фраз из дубляжа, на них - перевод Lostfilm
s04e13 - канал Че вырезал около 3 минут из серии, на этот фрагмент - перевод Lostfilm
s05e01 - канал Че вырезал около 1 минуты в начале серии, на этот фрагмент - перевод Lostfilm
s05e03 - канал Че вырезал одну фразу из дубляжа, на нее - перевод Lostfilm

General
Complete name : s01e02.avi
Format : AVI
Format/Info : Audio Video Interleave
File size : 830 MiB
Duration : 48 min 12 s
Overall bit rate : 2 407 kb/s
Writing application : VirtualDubMod 1.5.10.3 (build 2550/release)
Writing library : VirtualDubMod build 2550/release
Video
ID : 0
Format : MPEG-4 Visual
Format profile : Advanced Simple@L5
Format settings, BVOP : 1
Format settings, QPel : No
Format settings, GMC : No warppoints
Format settings, Matrix : Default (MPEG)
Codec ID : XVID
Codec ID/Hint : XviD
Duration : 48 min 12 s
Bit rate : 1 817 kb/s
Width : 720 pixels
Height : 400 pixels
Display aspect ratio : 16:9
Original display aspect ratio : 16:9
Frame rate : 23.976 (24000/1001) FPS
Color space : YUV
Chroma subsampling : 4:2:0
Bit depth : 8 bits
Scan type : Progressive
Compression mode : Lossy
Bits/(Pixel*Frame) : 0.263
Stream size : 627 MiB (75%)
Writing library : XviD 1.2.1 (UTC 2008-12-04)
Audio #1
ID : 1
Format : AC-3
Format/Info : Audio Coding 3
Mode extension : CM (complete main)
Format settings, Endianness : Big
Codec ID : 2000
Duration : 48 min 12 s
Bit rate mode : Constant
Bit rate : 192 kb/s
Channel(s) : 2 channels
Channel positions : Front: L R
Sampling rate : 48.0 kHz
Frame rate : 31.250 FPS (1536 spf)
Bit depth : 16 bits
Compression mode : Lossy
Stream size : 66.2 MiB (8%)
Alignment : Split accross interleaves
Interleave, duration : 42 ms (1.00 video frame)
Interleave, preload duration : 500 ms
Audio #2
ID : 2
Format : AC-3
Format/Info : Audio Coding 3
Mode extension : CM (complete main)
Format settings, Endianness : Big
Codec ID : 2000
Duration : 48 min 12 s
Bit rate mode : Constant
Bit rate : 384 kb/s
Channel(s) : 6 channels
Channel positions : Front: L C R, Side: L R, LFE
Sampling rate : 48.0 kHz
Frame rate : 31.250 FPS (1536 spf)
Bit depth : 16 bits
Compression mode : Lossy
Stream size : 132 MiB (16%)
Alignment : Split accross interleaves
Interleave, duration : 42 ms (1.00 video frame)
Interleave, preload duration : 500 ms



   Похожие торренты   Торрент   Размер 
В этой теме нет новых непрочитанных сообщений. Во все тяжкие / Breaking Bad [S01-05] (2008-2013) BDRip-AVC | LostFilm

5632 | 9634

70.47 ГБ

В этой теме нет новых непрочитанных сообщений. Во все тяжкие / Breaking Bad [S01-05] (2008-2013) BDRip 720p от GYN

780 | 1662

180.55 ГБ

В этой теме нет новых непрочитанных сообщений. Во все тяжкие / Breaking Bad [S01-05] (2008-2013) BDrip от qqss44 | LostFilm

5473 | 5313

46.61 ГБ

В этой теме нет новых непрочитанных сообщений. Во все тяжкие / Breaking Bad [S01-05] (2008-2013) BDRip-HEVC 1080p | D

54 | 58

65.18 ГБ

В этой теме нет новых непрочитанных сообщений. Во все тяжкие / Breaking Bad [S01-05] (2008-2013) BDrip от qqss44 | Кубик в Кубе

1960 | 2836

46.61 ГБ

В этой теме нет новых непрочитанных сообщений. Во все тяжкие / Breaking Bad [S01-05] (2008-2013) BDRip 720p HEVC | LostFilm

88 | 46

16.4 ГБ

В этой теме нет новых непрочитанных сообщений. Во все тяжкие / Breaking Bad [S01-05] (2008-2013) BDRip 1080p | Кубик в Кубе

6 | 50

253.45 ГБ




Вы не можете начинать темы
Вы не можете отвечать на сообщения
Вы не можете редактировать свои сообщения
Вы не можете удалять свои сообщения
Вы не можете добавлять вложения

Перейти:  
Для Мосгорсуда, Роскомнадзора и рекламодателей: mosgorsud-torrent[собачка]yandex.ru
 Вход
ppkBB3cker v.2 © 2008-2014 @ PPK
[ Time : 0.050s | 18 Queries | GZIP : Off ]

cron