img image001 image001 image001 image001 image001 image001 image001 image001 image001 image001 image001 image001 image001 image001 image001 image001

Planets Sun Sun Sun
Статистика раздачи
Автор: Nickolas3434 | Размер: 79 ГБ | Добавлен: 27 апр 2017
Раздают: 6    Качают: 1
Скачать торрент
Скачать торрент
Описание торрента

СообщениеДобавлено: 27 апр 2017 

Информация о фильме
Название: Черная кошка
Оригинальное название: Оригинальное название (для иностранных фильмов)
Год выхода: Год выпуска (или годы, через тире)
Жанр: история, криминал
Режиссер: Антон Сиверс
В ролях: Мария Андреева, Игорь Петренко, Гела Месхи, Дмитрий Соломыкин, Константин Лавроненко, Екатерина Гусева, Александр Лобанов (III), Виталий Герасимов, Иван Щенин, Алексей Шевченков, Юрий Чурсин, Юлия Галкина, Марина Доможирова и др.
О фильме:
Жестокая, таинственная и неуловимая банда «Черная кошка» из культового советского фильма «Место встречи изменить нельзя», действительно, существовала. Более того, она была не одна.
Их называли по-разному: «банда Митина», «Красногорские оборотни», «Черная кошка». Бандиты вышли на улицы Москвы прямо с Доски почёта оборонного завода Красногорска. Это были молодые парни — спортсмены, комсомольцы, ударники труда — лучшие представители передовой советской молодежи. Но это все днем… А ночью эти «передовые» ребята совершали дерзкие налеты, грабежи и убийства, несколько лет державшие в страхе всю страну. Их видели в лицо, их знали по именам, но никак не могли поймать, потому что никому не приходило в голову искать бандитов в рядах образцово-показательных комсомольцев…

Страна: Россия
Студия: Кинокомпания Русское
Продолжительность: 832 мин.
Перевод: Оригинал [Лицензия]
Файл
Кодек: MPEG4
Качество: 2xBlu-ray Disc 1080p
Видео: MPEG-4 AVC Video 13101 kbps 1080p / 24 fps / 16:9 / High Profile 4.0
Звук: Dolby Digital Audio Russian 192 kbps 2.0 / 48 kHz / 192 kbps
Субтитры: нет
DISC INFO:
Disc Title: Chernya koshka. Disk 1
Disc Size: 42 546 576 499 bytes
Protection: AACS
BD-Java: Yes
BDInfo: 0.5.8
PLAYLIST REPORT:
Name: 01011.MPLS
Length: 6:43:10.041 (h:m:s.ms)
Size: 42 332 983 296 bytes
Total Bitrate: 14,00 Mbps
VIDEO:
Codec Bitrate Deion
----- ------- -----------
MPEG-4 AVC Video 13101 kbps 1080p / 24 fps / 16:9 / High Profile 4.0
AUDIO:
Codec Language Bitrate Deion
----- -------- ------- -----------
Dolby Digital Audio Russian 192 kbps 2.0 / 48 kHz / 192 kbps
FILES:
Name Time In Length Size Total Bitrate
---- ------- ------ ---- -------------
00002.M2TS 0:00:00.000 0:52:23.625 5 484 527 616 13 957
00003.M2TS 0:52:23.625 0:49:57.041 5 248 862 208 14 011
00004.M2TS 1:42:20.666 0:50:05.000 5 294 026 752 14 094
00005.M2TS 2:32:25.666 0:50:46.666 5 339 400 192 14 020
00006.M2TS 3:23:12.333 0:50:44.291 5 343 805 440 14 043
00007.M2TS 4:13:56.625 0:49:25.791 5 179 097 088 13 970
00008.M2TS 5:03:22.416 0:49:40.333 5 203 494 912 13 968
00009.M2TS 5:53:02.750 0:50:07.291 5 239 769 088 13 939
CHAPTERS:
Number Time In Length Avg Video Rate Max 1-Sec Rate Max 1-Sec Time Max 5-Sec Rate Max 5-Sec Time Max 10Sec Rate Max 10Sec Time Avg Frame Size Max Frame Size Max Frame Time
------ ------- ------ -------------- -------------- -------------- -------------- -------------- -------------- -------------- -------------- -------------- --------------
1 0:00:00.000 0:52:23.625 13 059 kbps 24 268 kbps 00:18:21.666 16 532 kbps 00:17:43.333 15 614 kbps 00:17:39.291 68 018 bytes 440 118 bytes 00:30:00.333
2 0:52:23.625 0:49:57.041 13 111 kbps 22 798 kbps 01:35:38.750 16 476 kbps 01:24:57.208 15 481 kbps 01:24:53.624 68 286 bytes 368 103 bytes 01:25:01.458
3 1:42:20.666 0:50:05.000 13 190 kbps 24 468 kbps 02:00:24.458 16 946 kbps 01:52:23.166 15 898 kbps 02:15:01.583 68 700 bytes 356 390 bytes 02:21:58.958
4 2:32:25.666 0:50:46.666 13 120 kbps 22 654 kbps 02:49:50.208 16 904 kbps 02:40:13.208 15 189 kbps 02:40:09.833 68 335 bytes 459 530 bytes 02:39:11.958
5 3:23:12.333 0:50:44.291 13 142 kbps 22 600 kbps 03:39:51.083 16 288 kbps 03:24:52.333 15 055 kbps 03:24:35.791 68 446 bytes 386 995 bytes 03:51:07.125
6 4:13:56.625 0:49:25.791 13 072 kbps 23 259 kbps 04:46:34.125 16 671 kbps 04:46:31.416 15 469 kbps 04:46:32.333 68 084 bytes 420 236 bytes 04:40:59.541
7 5:03:22.416 0:49:40.333 13 069 kbps 21 259 kbps 05:22:02.958 16 392 kbps 05:23:06.708 15 217 kbps 05:23:01.541 68 069 bytes 354 506 bytes 05:19:28.541
8 5:53:02.750 0:50:07.291 13 042 kbps 22 759 kbps 06:31:59.416 16 636 kbps 05:57:38.083 15 780 kbps 06:35:48.000 67 927 bytes 549 532 bytes 06:22:02.333
STREAM DIAGNOSTICS:
File PID Type Codec Language Seconds Bitrate Bytes Packets
---- --- ---- ----- -------- -------------- -------------- ------------- -----
00002.M2TS 4113 (0x1011) 0x1B AVC 3143,542 13 060 5 131 756 109 27 934 325
00002.M2TS 4352 (0x1100) 0x81 AC3 rus (Russian) 3143,542 192 75 446 784 491 194
00003.M2TS 4113 (0x1011) 0x1B AVC 2996,917 13 111 4 911 693 774 26 736 315
00003.M2TS 4352 (0x1100) 0x81 AC3 rus (Russian) 2996,917 192 71 927 040 468 287
00004.M2TS 4113 (0x1011) 0x1B AVC 3004,875 13 191 4 954 663 870 26 969 971
00004.M2TS 4352 (0x1100) 0x81 AC3 rus (Russian) 3004,875 192 72 120 392 469 534
00005.M2TS 4113 (0x1011) 0x1B AVC 3046,583 13 120 4 996 507 044 27 197 933
00005.M2TS 4352 (0x1100) 0x81 AC3 rus (Russian) 3046,583 192 73 119 744 476 044
00006.M2TS 4113 (0x1011) 0x1B AVC 3044,167 13 142 5 000 826 744 27 221 350
00006.M2TS 4352 (0x1100) 0x81 AC3 rus (Russian) 3044,167 192 73 062 144 475 673
00007.M2TS 4113 (0x1011) 0x1B AVC 2965,667 13 072 4 846 081 846 26 379 257
00007.M2TS 4352 (0x1100) 0x81 AC3 rus (Russian) 2965,667 192 71 178 240 463 404
00008.M2TS 4113 (0x1011) 0x1B AVC 2980,208 13 070 4 868 864 252 26 503 395
00008.M2TS 4352 (0x1100) 0x81 AC3 rus (Russian) 2980,208 192 71 526 912 465 678
00009.M2TS 4113 (0x1011) 0x1B AVC 3007,167 13 042 4 902 562 372 26 686 922
00009.M2TS 4352 (0x1100) 0x81 AC3 rus (Russian) 3007,167 192 72 175 104 469 890

DISC INFO:
Disc Title: Chernya koshka. Disk 2
Disc Size: 42 274 501 479 bytes
Protection: AACS
BD-Java: Yes
BDInfo: 0.5.8
PLAYLIST REPORT:
Name: 01011.MPLS
Length: 6:38:52.000 (h:m:s.ms)
Size: 42 059 538 432 bytes
Total Bitrate: 14,06 Mbps
VIDEO:
Codec Bitrate Deion
----- ------- -----------
MPEG-4 AVC Video 13158 kbps 1080p / 24 fps / 16:9 / High Profile 4.0
AUDIO:
Codec Language Bitrate Deion
----- -------- ------- -----------
Dolby Digital Audio Russian 192 kbps 2.0 / 48 kHz / 192 kbps
FILES:
Name Time In Length Size Total Bitrate
---- ------- ------ ---- -------------
00002.M2TS 0:00:00.000 0:49:39.833 5 246 668 800 14 086
00003.M2TS 0:49:39.833 0:50:45.916 5 340 254 208 14 026
00004.M2TS 1:40:25.750 0:49:10.875 5 192 491 008 14 077
00005.M2TS 2:29:36.625 0:49:24.666 5 217 349 632 14 079
00006.M2TS 3:19:01.291 0:49:31.541 5 184 890 880 13 959
00007.M2TS 4:08:32.833 0:49:36.458 5 223 696 384 14 040
00008.M2TS 4:58:09.291 0:49:32.541 5 234 853 888 14 089
00009.M2TS 5:47:41.833 0:51:10.166 5 419 333 632 14 121
CHAPTERS:
Number Time In Length Avg Video Rate Max 1-Sec Rate Max 1-Sec Time Max 5-Sec Rate Max 5-Sec Time Max 10Sec Rate Max 10Sec Time Avg Frame Size Max Frame Size Max Frame Time
------ ------- ------ -------------- -------------- -------------- -------------- -------------- -------------- -------------- -------------- -------------- --------------
1 0:00:00.000 0:49:39.833 13 183 kbps 22 913 kbps 00:46:03.250 16 236 kbps 00:36:56.208 15 418 kbps 00:17:50.208 68 660 bytes 411 476 bytes 00:44:46.875
2 0:49:39.833 0:50:45.916 13 125 kbps 27 430 kbps 01:00:56.041 16 559 kbps 00:58:12.166 15 226 kbps 01:00:38.208 68 362 bytes 412 244 bytes 01:31:21.208
3 1:40:25.750 0:49:10.875 13 174 kbps 22 976 kbps 01:43:36.916 16 510 kbps 01:43:45.083 15 643 kbps 02:07:01.416 68 617 bytes 323 468 bytes 02:10:21.750
4 2:29:36.625 0:49:24.666 13 176 kbps 22 228 kbps 02:58:47.750 17 009 kbps 03:06:09.833 15 541 kbps 02:31:23.125 68 625 bytes 383 538 bytes 02:38:23.333
5 3:19:01.291 0:49:31.541 13 061 kbps 23 176 kbps 04:01:07.583 16 478 kbps 03:30:02.541 15 307 kbps 03:29:59.125 68 027 bytes 435 559 bytes 03:52:42.583
6 4:08:32.833 0:49:36.458 13 139 kbps 22 607 kbps 04:22:50.000 16 043 kbps 04:41:44.333 14 774 kbps 04:09:52.750 68 432 bytes 438 402 bytes 04:18:33.708
7 4:58:09.291 0:49:32.541 13 185 kbps 22 894 kbps 05:18:45.541 16 055 kbps 05:32:13.000 14 958 kbps 05:32:09.666 68 677 bytes 424 216 bytes 05:37:15.750
8 5:47:41.833 0:51:10.166 13 217 kbps 22 820 kbps 05:59:46.250 15 925 kbps 06:14:51.250 15 289 kbps 06:15:58.375 68 840 bytes 391 607 bytes 06:14:54.958
STREAM DIAGNOSTICS:
File PID Type Codec Language Seconds Bitrate Bytes Packets
---- --- ---- ----- -------- -------------- -------------- ------------- -----
00002.M2TS 4113 (0x1011) 0x1B AVC 2979,708 13 183 4 910 282 802 26 728 353
00002.M2TS 4352 (0x1100) 0x81 AC3 rus (Russian) 2979,708 192 71 516 160 465 600
00003.M2TS 4113 (0x1011) 0x1B AVC 3045,792 13 126 4 997 371 002 27 202 516
00003.M2TS 4352 (0x1100) 0x81 AC3 rus (Russian) 3045,792 192 73 101 312 475 924
00004.M2TS 4113 (0x1011) 0x1B AVC 2950,792 13 175 4 859 490 670 26 451 993
00004.M2TS 4352 (0x1100) 0x81 AC3 rus (Russian) 2950,792 192 70 821 120 461 075
00005.M2TS 4113 (0x1011) 0x1B AVC 2964,542 13 176 4 882 781 585 26 578 695
00005.M2TS 4352 (0x1100) 0x81 AC3 rus (Russian) 2964,542 192 71 152 128 463 230
00006.M2TS 4113 (0x1011) 0x1B AVC 2971,417 13 062 4 851 407 055 26 408 277
00006.M2TS 4352 (0x1100) 0x81 AC3 rus (Russian) 2971,417 192 71 314 944 464 302
00007.M2TS 4113 (0x1011) 0x1B AVC 2976,333 13 139 4 888 406 351 26 609 394
00007.M2TS 4352 (0x1100) 0x81 AC3 rus (Russian) 2976,333 192 71 433 984 465 073
00008.M2TS 4113 (0x1011) 0x1B AVC 2972,458 13 186 4 899 254 454 26 668 273
00008.M2TS 4352 (0x1100) 0x81 AC3 rus (Russian) 2972,458 192 71 341 056 464 460
00009.M2TS 4113 (0x1011) 0x1B AVC 3070,083 13 217 5 072 148 213 27 609 544
00009.M2TS 4352 (0x1100) 0x81 AC3 rus (Russian) 3070,083 192 73 683 456 479 714



Релиз от:



   Похожие торренты   Торрент   Размер 
В этой теме нет новых непрочитанных сообщений. София [01-08 из 08] (2016) Blu-ray Disc 1080p от New-Team | Лицензия

29 | 15

39.25 ГБ

В этой теме нет новых непрочитанных сообщений. Черная кошка [01 из 16] (2016) WEB-DL 1080p от Files-x

0 | 0

6.25 ГБ

В этой теме нет новых непрочитанных сообщений. Черная кошка [01 из 16] (2016) WEB-DL 1080p от Files-x

0 | 0

2.16 ГБ

В этой теме нет новых непрочитанных сообщений. Хоббит: Битва пяти воинств 3D / The Hobbit: The Battle of the Five Armies 3D (2014) 2xBlu-Ray CEE 1080p от New-Team | 3D-Video | Extended Cut | Лицензия

39 | 21

60.91 ГБ

В этой теме нет новых непрочитанных сообщений. Дружина [01-08 из 08] (2015) Blu-ray Disc 1080p от New-Team | Лицензия

4 | 1

39.6 ГБ

В этой теме нет новых непрочитанных сообщений. Черная кошка [01-16 из 16] (2016) WEB-DL 720p

26 | 7

8.78 ГБ

В этой теме нет новых непрочитанных сообщений. Черная кошка [01-02 из 16] (2016) WEB-DLRip-AVC от Files-x

32 | 2

1.21 ГБ




Вы не можете начинать темы
Вы не можете отвечать на сообщения
Вы не можете редактировать свои сообщения
Вы не можете удалять свои сообщения
Вы не можете добавлять вложения

Перейти:  
 Вход
ppkBB3cker v.2 © 2008-2014 @ PPK
[ Time : 0.062s | 16 Queries | GZIP : Off ]

cron