img image001 image001 image001 image001 image001 image001 image001 image001 image001 image001 image001 image001 image001 image001 image001

Planets Sun Sun Sun

COVID-19 - Последняя информация о коронавирусе на сайте Минздрава


Статистика раздачи
Автор: Nickolas3434 | Размер: 2.19 ГБ | Добавлен: 08 июн 2017
Раздают: 34    Качают: 10
Скачать торрент
Скачать торрент
Описание торрента

СообщениеДобавлено: 08 июн 2017 

Мальчик в синей футболке / Little Boy Blue
Страна: Великобритания
Производство: ITV Broadcasting, ITV Studios
Год выпуска: 2017
Сезон: 1
Жанр: драма, криминал, детектив
Продолжительность: 4х ~00:46:00
Режиссер: Пол Уиттингтон
Автор сценария: Джефф Поуп
В ролях: Синед Кинэн, Брайан Ф. О’Бирн, Мэтью Робертс, Стивен Грэм, Лаура Дос Сантос, Элизабет Беррингтон, Сара Пауэлл, Джоди МакНи
Описание: В августе 2007 года 11-летний Рис Джонс по дороге домой после футбольного матча был убит местным хулиганом, 16-летним Шоном Мерсером. Свидетелей преступления было достаточно, однако все слишком боялись убийцу, и никто не осмелился дать показания...

Перевод: Любительский (двухголосый, закадровый) | SNK-TV
Субтитры: английские | отдельными файлами

Качество: HDTVRip
Формат: AVI
Видео кодек: XviD
Аудио кодек: МР3
Видео: 720x400 (16:9), 25.000 fps, XviD ~1 452 kbps avg
Аудио №1: 48.0 kHz, MPEG Layer 3, 2 ch, ~128 kbps avg | RUS
Аудио №2: 48.0 kHz, MPEG Layer 3, 2 ch, ~128 kbps avg | ENG
Формат субтитров: *SRT
Дата премьеры (мир): 24 апреля 2017

General
Complete name : Little.Boy.Blue.S01E01.HDTVRip.SNK-TV.avi
Format : AVI
Format/Info : Audio Video Interleave
File size : 567 MiB
Duration : 46mn 0s
Overall bit rate : 1 722 Kbps
Movie name : Мальчик в синей футболке / Little Boy Blue S01E01
Director : SNK-TV
Writing application : VirtualDubModRus 1.5.10.2 (build 2542/release)
Writing library : VirtualDubMod build 2542/release
Video
ID : 0
Format : MPEG-4 Visual
Format profile : Advanced Simple@L5
Format settings, BVOP : 1
Format settings, QPel : No
Format settings, GMC : No warppoints
Format settings, Matrix : Default (MPEG)
Codec ID : XVID
Codec ID/Hint : XviD
Duration : 46mn 0s
Bit rate : 1 452 Kbps
Width : 720 pixels
Height : 400 pixels
Display aspect ratio : 16:9
Frame rate : 25.000 fps
Color space : YUV
Chroma subsampling : 4:2:0
Bit depth : 8 bits
Scan type : Progressive
Compression mode : Lossy
Bits/(Pixel*Frame) : 0.202
Stream size : 478 MiB (84%)
Writing library : XviD 1.2.1 (UTC 2008-12-04)
Audio #1
ID : 1
Format : MPEG Audio
Format version : Version 1
Format profile : Layer 3
Mode : Joint stereo
Mode extension : MS Stereo
Codec ID : 55
Codec ID/Hint : MP3
Duration : 46mn 0s
Bit rate mode : Constant
Bit rate : 128 Kbps
Channel(s) : 2 channels
Sampling rate : 48.0 KHz
Compression mode : Lossy
Stream size : 42.1 MiB (7%)
Alignment : Aligned on interleaves
Interleave, duration : 40 ms (1.00 video frame)
Interleave, preload duration : 504 ms
Audio #2
ID : 2
Format : MPEG Audio
Format version : Version 1
Format profile : Layer 3
Mode : Joint stereo
Codec ID : 55
Codec ID/Hint : MP3
Duration : 46mn 0s
Bit rate mode : Constant
Bit rate : 128 Kbps
Channel(s) : 2 channels
Sampling rate : 48.0 KHz
Compression mode : Lossy
Stream size : 42.1 MiB (7%)
Alignment : Aligned on interleaves
Interleave, duration : 40 ms (1.00 video frame)
Interleave, preload duration : 504 ms

   Похожие торренты   Торрент   Размер 
В этой теме нет новых непрочитанных сообщений. Мальчик в синей футболке / Little Boy Blue [01-04 из 04] (2017) HDTVRip 720р | L2

38 | 3

3.57 ГБ

В этой теме нет новых непрочитанных сообщений. За синими дверями / За синей дверью / Za niebieskimi drzwiami / Behind the blue door (2016) WEBRip | L1

194 | 4

1.46 ГБ

В этой теме нет новых непрочитанных сообщений. Харли Дэвидсон с синим отливом / Парни в синей форме / Electra Glide in Blue (1973) HDTV 1080i | P2

12 | 10

4.01 ГБ

В этой теме нет новых непрочитанных сообщений. Мармеладный мальчик / Marmalade Boy [01-59 из 76] (1994) DVDRip | AniFilm

3 | 0

13.21 ГБ

В этой теме нет новых непрочитанных сообщений. Мальчик на дельфине / Boy on a Dolphin (1957) HDRip-AVC | P

1 | 0

745.05 МБ

В этой теме нет новых непрочитанных сообщений. Мальчик на дельфине / Boy on a Dolphin (1957) BDRip 1080p | P

4 | 2

7.32 ГБ

В этой теме нет новых непрочитанных сообщений. Мальчик на дельфине / Boy on a Dolphin (1957) BDRip 720p от Koenig | P

1 | 0

4.51 ГБ




Вы не можете начинать темы
Вы не можете отвечать на сообщения
Вы не можете редактировать свои сообщения
Вы не можете удалять свои сообщения
Вы не можете добавлять вложения

Перейти:  
Контактная информация: rstracker[пёсик]yandex.ru
cron
 Вход
ppkBB3cker v.2 © 2008-2014 @ PPK
[ Time : 0.047s | 18 Queries | GZIP : Off ]

cron