img image001 image001 image001 image001 image001 image001 image001 image001 image001 image001 image001 image001 image001 image001 image001 image001

Planets Sun Sun Sun
Статистика раздачи
Автор: Nickolas3434 | Размер: 1.46 ГБ | Добавлен: 06 июл 2017
Раздают: 4    Качают: 1
Скачать торрент
Скачать торрент
Описание торрента

СообщениеДобавлено: 06 июл 2017 

Информация о фильме
Название: Невеста речного бога
Оригинальное название: Habaekui Shinboo
Год выхода: 2017
Жанр: фэнтэзи, мелодрама, комедия
Режиссер: Ким Бён Су
В ролях: Ли Кён Ён, Кристал Чон, Пак Кю Сон, Гон Мён, Хан Сон Ён, Пэ Ну Ри
О фильме:
В древности после засухи крестьяне решали, что Бог водной стихии Хабэк прогневался и требует от них человеческой жертвы. Крестьяне выбирали из местных девиц юную красавицу, нарекали её невестой водяного Бога, а потом ритуально бросали в реку. Бог Хабэк — вовсе не чудовище и не демон, а вполне красивый и воспитанный молодой человек. Правда, слегка избалованный.

Страна: Южная Корея
Студия: tvN
Продолжительность: ~ 60 мин. серия
Перевод: Любительский, двухголосый, закадровый (РГ "XDUB DORAMA", перевод на русский: ФСГ "Азалии", закадровый текст читали: Koldun02 & Leteriya, тайминг и работа со звуком: Leteriya)
Файл
Кодек: V_MPEG4/ISO/AVC
Качество: HDTVRip 720p
Видео: 1280x720 (16:9), 29.970 FPS, 2802 kb/s
Звук: mp3, 48.0 KHz, 2ch, 192 kb/s
Субтитры: нет
General
Unique ID : 188267498096408151273116805608291745640 (0x8DA3004F8D6CDDC5B4A795CEE004BF68)
Complete name : Bride.of.the.Water.God.E01.720p.HDTVRip.mkv
Format : Matroska
Format version : Version 4 / Version 2
File size : 1.46 GiB
Duration : 1 h 9 min
Overall bit rate : 2 997 kb/s
Encoded date : UTC 2017-07-05 17:34:19
Writing application : mkvmerge v7.8.0 ('River Man') 64bit built on Mar 27 2015 16:31:37
Writing library : libebml v1.3.1 + libmatroska v1.4.2
Video
ID : 1
Format : AVC
Format/Info : Advanced Video Codec
Format profile : High@L3.2
Format settings, CABAC : Yes
Format settings, ReFrames : 3 frames
Format settings, GOP : M=4, N=30
Codec ID : V_MPEG4/ISO/AVC
Duration : 1 h 9 min
Bit rate : 2 802 kb/s
Width : 1 280 pixels
Height : 720 pixels
Display aspect ratio : 16:9
Frame rate mode : Constant
Frame rate : 29.970 (30000/1001) FPS
Color space : YUV
Chroma subsampling : 4:2:0
Bit depth : 8 bits
Scan type : Progressive
Bits/(Pixel*Frame) : 0.101
Stream size : 1.37 GiB (94%)
Default : Yes
Forced : No
Audio
ID : 2
Format : MPEG Audio
Format version : Version 1
Format profile : Layer 3
Mode : Joint stereo
Mode extension : MS Stereo
Codec ID : A_MPEG/L3
Codec ID/Hint : MP3
Duration : 1 h 9 min
Bit rate mode : Constant
Bit rate : 192 kb/s
Channel(s) : 2 channels
Sampling rate : 48.0 kHz
Frame rate : 41.667 FPS (1152 spf)
Compression mode : Lossy
Stream size : 95.8 MiB (6%)
Default : Yes
Forced : No

Релиз от:



   Похожие торренты   Торрент   Размер 
В этой теме нет новых непрочитанных сообщений. Невеста речного бога / Habaekui Shinboo [01-01 из 16] (2017) HDTVRip 720p | L2

21 | 11

2.91 ГБ

В этой теме нет новых непрочитанных сообщений. Невеста речного бога / Habaekui Shinboo [01-01 из 16] (2017) HDTVRip 720p | L2

18 | 5

4.41 ГБ

В этой теме нет новых непрочитанных сообщений. Yoon Mi-Kyung / Юн Ми Гён – Невеста Речного Бога / Невеста Бога Воды / The Bride of the Water God / Habaegui Sinbu [1 – 20 тома из 24] [2006] [incomplete]

0 | 8

1.54 ГБ

В этой теме нет новых непрочитанных сообщений. Невеста чародея / Mahoutsukai no Yome [S01] (2017) HDTVRip 720p | Persona99

8 | 1

8.77 ГБ

В этой теме нет новых непрочитанных сообщений. Невеста (2017) WEB-DL 720p | iTunes

447 | 9

2.84 ГБ

В этой теме нет новых непрочитанных сообщений. Сколько стоит невеста? (2017) WEBRip 720p

9 | 0

310.01 МБ

В этой теме нет новых непрочитанных сообщений. Невеста (2017) BDRip 720p от HELLYWOOD | Лицензия

94 | 2

2.91 ГБ




Вы не можете начинать темы
Вы не можете отвечать на сообщения
Вы не можете редактировать свои сообщения
Вы не можете удалять свои сообщения
Вы не можете добавлять вложения

Перейти:  
 Вход
ppkBB3cker v.2 © 2008-2014 @ PPK
[ Time : 0.052s | 15 Queries | GZIP : Off ]

cron