img image001 image001 image001 image001 image001 image001 image001 image001 image001 image001 image001 image001 image001 image001 image001

Planets Sun Sun Sun
Статистика раздачи
Автор: Nickolas3434 | Размер: 28.96 ГБ | Добавлен: 11 июл 2017
Раздают: 41    Качают: 35
Скачать торрент
Скачать торрент
Описание торрента

СообщениеДобавлено: 11 июл 2017 

Название: Миллиарды
Оригинальное название: Billions
Год выхода первого сезона: 2016
Страна: США
Студия: Showtime Entertainment
Продолжительность: 12 x ~ 55:00
Жанр: драма
Режиссер: Анна Боден, Райан Флек, Карин Кусама, ...
В ролях: Дэмиэн Льюис, Пол Джаматти, Мэгги Сифф, Малин Акерман, Тоби Леонард Мур, Дэвид Костабайл, Кондола Рашад, Дэниэл К. Исаак, Фрэнк Хартс, Мелисса Джойс, Ильфенеш Хадера, ...
Перевод:
- Профессиональный (многоголосный, закадровый) Amedia
- Профессиональный (многоголосный, закадровый) NewStudio
- Субтитры
О фильме: В мире власти и больших денег, в самом сердце Нью-Йорка, вовсю идет противостояние амбициозного финансиста с Уолл-стрит Бобби Аксельрода и принципиального федерального прокурора Чака Родса…

Кодек: x264
Качество: BDRip 720p
Видео: 1280x720, ~4800 kbps, 23,976 fps
Аудио #1: AC-3, 2 ch, 192 kbps (Rus) - MVO Amedia
Аудио #2: AC-3, 6 ch, 384 kbps (Rus) - MVO NewStudio
Аудио #3: AC-3, 6 ch, 640 kbps (Eng)
Субтитры: Русские, Английские
Общее
Уникальный идентификатор : 178347747802192514791045088961675087087 (0x862C86DC67E67FE6970C47CD7B2B4CEF)
Полное имя : Billions E01 S01 2016 BDRip 720p Amedia NewStudio.mkv
Формат : Matroska
Версия формата : Version 2
Размер файла : 2,42 Гбайт
Продолжительность : 59 м.
Общий поток : 5825 Кбит/сек
Дата кодирования : UTC 2017-06-05 20:14:34
Программа кодирования : mkvmerge v4.0.0 ('The Stars were mine') сборка от Jun 6 2010 16:18:42
Библиотека кодирования : libebml v1.0.0 + libmatroska v1.0.0
Видео
Идентификатор : 1
Формат : AVC
Формат/Информация : Advanced Video Codec
Профиль формата : High@L4.1
Параметр CABAC формата : Да
Параметр ReFrames формата : 5 кадров
Идентификатор кодека : V_MPEG4/ISO/AVC
Продолжительность : 59 м.
Битрейт : 4609 Кбит/сек
Ширина : 1280 пикселей
Высота : 720 пикселей
Соотношение сторон : 16:9
Режим частоты кадров : Постоянный
Частота кадров : 23,976 кадра/сек
Цветовое пространство : YUV
Субдискретизация насыщенности : 4:2:0
Битовая глубина : 8 бит
Тип развёртки : Прогрессивная
Бит/(Пиксели*Кадры) : 0.209
Размер потока : 1,87 Гбайт (77%)
Библиотека кодирования : x264 core 148 r2705 3f5ed56
Настройки программы : cabac=1 / ref=5 / deblock=1:0:0 / analyse=0x3:0x133 / me=umh / subme=7 / psy=1 / psy_rd=1.00:0.00 / mixed_ref=1 / me_range=16 / chroma_me=1 / trellis=1 / 8x8dct=1 / cqm=0 / deadzone=21,11 / fast_pskip=0 / chroma_qp_offset=-2 / threads=12 / lookahead_threads=2 / sliced_threads=0 / nr=0 / decimate=1 / interlaced=0 / bluray_compat=0 / constrained_intra=0 / bframes=3 / b_pyramid=2 / b_adapt=1 / b_bias=0 / direct=1 / weightb=1 / open_gop=0 / weightp=2 / keyint=250 / keyint_min=23 / scenecut=40 / intra_refresh=0 / rc_lookahead=40 / rc=2pass / mbtree=1 / bitrate=4609 / ratetol=1.0 / qcomp=0.60 / qpmin=0 / qpmax=69 / qpstep=4 / cplxblur=20.0 / qblur=0.5 / ip_ratio=1.40 / aq=1:1.00
Язык : English
Default : Нет
Forced : Нет
Аудио #1
Идентификатор : 2
Формат : AC-3
Формат/Информация : Audio Coding 3
Расширение режима : CM (complete main)
Параметр Endianness формата : Big
Идентификатор кодека : A_AC3
Продолжительность : 59 м.
Вид битрейта : Постоянный
Битрейт : 192 Кбит/сек
Каналы : 2 канала
Расположение каналов : Front: L R
Частота : 48,0 КГц
Частота кадров : 31,250 кадров/сек (1536 spf)
Метод сжатия : С потерями
Размер потока : 81,8 Мбайт (3%)
Заголовок : Amedia
Язык : Russian
Default : Нет
Forced : Нет
Аудио #2
Идентификатор : 3
Формат : AC-3
Формат/Информация : Audio Coding 3
Расширение режима : CM (complete main)
Параметр Endianness формата : Big
Идентификатор кодека : A_AC3
Продолжительность : 59 м.
Вид битрейта : Постоянный
Битрейт : 384 Кбит/сек
Каналы : 6 каналов
Расположение каналов : Front: L C R, Side: L R, LFE
Частота : 48,0 КГц
Частота кадров : 31,250 кадров/сек (1536 spf)
Метод сжатия : С потерями
Размер потока : 164 Мбайт (7%)
Заголовок : NewStudio
Язык : Russian
Default : Нет
Forced : Нет
Аудио #3
Идентификатор : 4
Формат : AC-3
Формат/Информация : Audio Coding 3
Расширение режима : CM (complete main)
Параметр Endianness формата : Big
Идентификатор кодека : A_AC3
Продолжительность : 59 м.
Вид битрейта : Постоянный
Битрейт : 640 Кбит/сек
Каналы : 6 каналов
Расположение каналов : Front: L C R, Side: L R, LFE
Частота : 48,0 КГц
Частота кадров : 31,250 кадров/сек (1536 spf)
Метод сжатия : С потерями
Размер потока : 273 Мбайт (11%)
Язык : English
Default : Нет
Forced : Нет
Текст #1
Идентификатор : 5
Формат : UTF-8
Идентификатор кодека : S_TEXT/UTF8
Идентификатор кодека/Информация : UTF-8 Plain Text
Язык : Russian
Default : Нет
Forced : Нет
Текст #2
Идентификатор : 6
Формат : UTF-8
Идентификатор кодека : S_TEXT/UTF8
Идентификатор кодека/Информация : UTF-8 Plain Text
Язык : English
Default : Нет
Forced : Нет





   Похожие торренты   Торрент   Размер 
В этой теме нет новых непрочитанных сообщений. Миллиарды / Billions [S01] (2016) WEBRip 720p от qqss44 | Amedia

9 | 7

12.89 ГБ

В этой теме нет новых непрочитанных сообщений. Миллиарды / Billions [S01] (2016) HDTVRip 720p | NewStudio

149 | 121

13.75 ГБ

В этой теме нет новых непрочитанных сообщений. Миллиарды / Billions [01х01 из 12] (2016) HDTVRip 720p | NewStudio

520 | 17

1.45 ГБ

В этой теме нет новых непрочитанных сообщений. Миллиарды / Billions [S01] (2016) WEBRip от qqss44 | Amedia

8 | 6

7.45 ГБ

В этой теме нет новых непрочитанных сообщений. Миллиарды / Billions [01х01 из 12] (2016) HDTVRip | NewStudio

104 | 13

690.9 МБ

В этой теме нет новых непрочитанных сообщений. Миллиарды, 1 сезон 1-3 серии из 12 / Billions [NewStudio] (Джеймс Фоули, Нил Бёргер, Скотт Хорнбэкер) [2016, драма, HDTVRip, P]

186 | 158

2.01 ГБ

В этой теме нет новых непрочитанных сообщений. Миллиарды, 1 сезон 1-2 серии из 12 / Billions [NewStudio] (Джеймс Фоули, Нил Бёргер, Скотт Хорнбэкер) [2016, драма, HDTVRip, P]

183 | 35

1.34 ГБ




Вы не можете начинать темы
Вы не можете отвечать на сообщения
Вы не можете редактировать свои сообщения
Вы не можете удалять свои сообщения
Вы не можете добавлять вложения

Перейти:  
 Вход
ppkBB3cker v.2 © 2008-2014 @ PPK
[ Time : 0.033s | 15 Queries | GZIP : Off ]

cron