img image001 image001 image001 image001 image001 image001 image001 image001 image001 image001 image001 image001 image001 image001 image001 image001

Planets Sun Sun Sun
Статистика раздачи
Автор: Nickolas3434 | Размер: 8.01 ГБ | Добавлен: 22 июл 2017
Раздают: 22    Качают: 12
Скачать торрент
Скачать торрент
Описание торрента

СообщениеДобавлено: 22 июл 2017 

Название: Умник
Оригинальное название: Cleverman
Год выхода: 2017
Жанр: фантастика
Режиссер: Уэйн Блэр, Леа Пурселл
В ролях:
Тисан Тоуни, Хантер Пейдж-Лошар, Роб Коллинз, Дебора Мэйлман, Райан Корр, Тасма Уолтон, Джада Альбертс, Джек Чарльз, Рондда Финдлтон и др.

Действие сериала разворачивается в недалеком будущем. Существа из австралийских мифов и легенд проникли в нашу реальность и захватили мир людей, и теперь человечество вынуждено ютиться в небольшой общине, опасаясь за свою жизнь. В центре событий — история двух братьев, которые, несмотря на давнюю вражду, объединяют усилия в борьбе за выживание.
Производство: США, Австралия, Новая Зеландия / Goalpost Pictures, Pukeko Pictures
Продолжительность: ~00:50:00
Перевод: Любительский (многоголосый) Baibako
Субтитры: Отсутствуют

Файл
Формат: MKV
Качество: WEB-DLRip (1080p)
Видео: MPEG-4 AVC, ~ 5000 Кбит/с, 1916x1076
Аудио Rus: AC3, 6 ch, 384 Кбит/с
Аудио Eng: AC3, 6 ch, 384 Кбит/с
Релиз группа:


Формат : Matroska
Версия формата : Version 4 / Version 2
Размер файла : 2,02 Гбайт
Продолжительность : 48 м. 45 с.
Общий поток : 5929 Кбит/сек
Дата кодирования : UTC 2017-07-21 00:12:53
Программа кодирования : mkvmerge v8.5.2 ('Crosses') 64bit
Библиотека кодирования : libebml v1.3.3 + libmatroska v1.4.4
Видео
Идентификатор : 1
Формат : AVC
Формат/Информация : Advanced Video Codec
Профиль формата : High@L4.1
Параметр CABAC формата : Да
Параметр RefFrames формата : 4 кадра
Идентификатор кодека : V_MPEG4/ISO/AVC
Продолжительность : 48 м. 45 с.
Битрейт : 5159 Кбит/сек
Номинальный битрейт : 4096 Кбит/сек
Ширина : 1916 пикселей
Высота : 1076 пикселей
Соотношение сторон : 16:9
Режим частоты кадров : Постоянный
Частота кадров : 25,000 кадров/сек
Цветовое пространство : YUV
Субдискретизация насыщенности : 4:2:0
Битовая глубина : 8 бит
Тип развёртки : Прогрессивная
Бит/(Пиксели*Кадры) : 0.100
Размер потока : 1,76 Гбайт (87%)
Библиотека кодирования : x264 core 142 r2479 dd79a61
Настройки программы : cabac=1 / ref=3 / deblock=1:0:0 / analyse=0x3:0x113 / me=hex / subme=7 / psy=1 / psy_rd=1.00:0.00 / mixed_ref=1 / me_range=16 / chroma_me=1 / trellis=1 / 8x8dct=1 / cqm=0 / deadzone=21,11 / fast_pskip=1 / chroma_qp_offset=-2 / threads=12 / lookahead_threads=2 / sliced_threads=0 / nr=0 / decimate=1 / interlaced=0 / bluray_compat=0 / constrained_intra=0 / bframes=3 / b_pyramid=2 / b_adapt=1 / b_bias=0 / direct=1 / weightb=1 / open_gop=0 / weightp=2 / keyint=250 / keyint_min=25 / scenecut=40 / intra_refresh=0 / rc_lookahead=40 / rc=2pass / mbtree=1 / bitrate=4096 / ratetol=1.0 / qcomp=0.60 / qpmin=0 / qpmax=69 / qpstep=4 / cplxblur=20.0 / qblur=0.5 / vbv_maxrate=62500 / vbv_bufsize=78125 / nal_hrd=none / filler=0 / ip_ratio=1.40 / aq=1:1.00
Default : Нет
Forced : Нет
Цветовой диапазон : Limited
Основные цвета : BT.709
Характеристики трансфера : BT.709
Коэффициенты матрицы : BT.709
Аудио #1
Идентификатор : 2
Формат : AC-3
Формат/Информация : Audio Coding 3
Параметр Endianness формата : Big
Идентификатор кодека : A_AC3
Продолжительность : 48 м. 45 с.
Вид битрейта : Постоянный
Битрейт : 384 Кбит/сек
Каналы : 6 каналов
Расположение каналов : Front: L C R, Side: L R, LFE
Частота : 48,0 КГц
Частота кадров : 31,250 кадров/сек (1536 SPF)
Битовая глубина : 16 бит
Метод сжатия : С потерями
Размер потока : 134 Мбайт (6%)
Язык : Russian
Default : Да
Forced : Нет
Аудио #2
Идентификатор : 3
Формат : AC-3
Формат/Информация : Audio Coding 3
Параметр Endianness формата : Big
Идентификатор кодека : A_AC3
Продолжительность : 48 м. 45 с.
Вид битрейта : Постоянный
Битрейт : 384 Кбит/сек
Каналы : 6 каналов
Расположение каналов : Front: L C R, Side: L R, LFE
Частота : 48,0 КГц
Частота кадров : 31,250 кадров/сек (1536 SPF)
Битовая глубина : 16 бит
Метод сжатия : С потерями
Размер потока : 134 Мбайт (6%)
Язык : English
Default : Нет
Forced : Нет
Внимание! Раздача ведётся путём добавления новых серий; при каждом добавлении создаётся новый торрент. Чтобы начать докачку новой серии, пользователям необходимо сделать следующее:
(1) остановить скачивание,
(2) удалить старый торрент у себя из клиента (старые серии удалять не надо),
(3) скачать новый торрент и запустить его у себя в клиенте вместо старого, при этом указать клиенту путь в старую папку куда и должно происходить скачивание новых серий.
Ваш клиент при этом должен произвести хеширование (проверку) старой папки (если не производит сам - помогите ему сделать это), и будет докачивать только те серии которых у вас ещё нет. Старые серии при этом не удаляются, а продолжают раздаваться!
Eсли вы уже удалили старые серии, то предотвратить повторную закачку старых серий можно, отжав галочку в соответсвующих местах при запуске нового торрента. По возможности, желательно не удалять старые серии как можно дольше чтобы релизёр не столько продолжал раздавать старые серии, а смог сконцентрироваться на новых.



   Похожие торренты   Торрент   Размер 
В этой теме нет новых непрочитанных сообщений. Умник / Cleverman [02x01 из 06] (2017) HDTVRip 720p | Jaskier

39 | 3

1.11 ГБ

В этой теме нет новых непрочитанных сообщений. Умный человек / Умник, 2 сезон 1-6 серия из 6 / Cleverman [NewStudio] (Уэйн Блэр, Леа Пурселл) [2017, фантастика, WEB-DLRip, P]

4 | 0

3.21 ГБ

В этой теме нет новых непрочитанных сообщений. Умный человек / Умник, 2 сезон 1-4 серия из 6 / Cleverman [NewStudio] (Уэйн Блэр, Леа Пурселл) [2017, фантастика, WEB-DLRip, P]

6 | 2

2.14 ГБ

В этой теме нет новых непрочитанных сообщений. Умный человек / Умник, 2 сезон 1-5 серия из 6 / Cleverman [NewStudio] (Уэйн Блэр, Леа Пурселл) [2017, фантастика, WEB-DLRip, P]

8 | 0

2.68 ГБ

В этой теме нет новых непрочитанных сообщений. Умник / Cleverman [S01] (2016) WEB-DLRip | IdeaFilm

40 | 7

4.02 ГБ

В этой теме нет новых непрочитанных сообщений. Умник / Cleverman [S01] (2016) WEB-DLRip 720p | IdeaFilm

3 | 1

9.76 ГБ

В этой теме нет новых непрочитанных сообщений. Умник / Cleverman [01х01 из 06] (2016) WEB-DLRip | NewStudio

2 | 0

600.53 МБ




Вы не можете начинать темы
Вы не можете отвечать на сообщения
Вы не можете редактировать свои сообщения
Вы не можете удалять свои сообщения
Вы не можете добавлять вложения

Перейти:  
 Вход
ppkBB3cker v.2 © 2008-2014 @ PPK
[ Time : 0.034s | 15 Queries | GZIP : Off ]

cron