img image001 image001 image001 image001 image001 image001 image001 image001 image001 image001 image001 image001 image001 image001 image001

Planets Sun Sun Sun
Статистика раздачи
Автор: Nickolas3434 | Размер: 2.89 ГБ | Добавлен: 22 июл 2017
Раздают: 168    Качают: 12
Скачать торрент
Скачать торрент
Описание торрента

СообщениеДобавлено: 22 июл 2017 

Информация о фильме
Название: Уголовное дело
Год выпуска: 2015
Жанр: Детектив, криминал
Режиссер: Наталия Средникова
В ролях: Константин Спиркин, Игорь Ливанов, Леонид Тележинский, Виктория Рунцова, Надежда Евтехова, Марина Зайцева, Ольга Ажажа, Светлана Гера, Максим Макаров, Ника Балина, Максим Артамонов
О фильме: Максим Климов - майор милиции, следователь в небольшом провинциальном городе Новорецк. Климов берётся за расследование самых запутанных уголовных дел вместе со своей командой - криминалистом Юлией и оперативником Гришей.Майор всегда готов довести расследование до конца, и никакие хитроумные уловки преступников не способны сбить его с верного пути.Так, Климову предстоит разобраться в необычном деле об убийстве криминального авторитета, а ныне успешного бизнесмена Савотеева и раскрыть тайну смерти бывшего заключенного Комарова, отсидевшего пятнадцать лет за убийство инкассатора. Кто же на самом деле мог желать им смерти?Майор начинает расследование, не подозревая, насколько неожиданной окажется разгадка…

Выпущено: Россия
Студия: Киновек
Продолжительность: 4 x ~ 00:45:00
Перевод: Не требуется
Файл
Качество: WEB-DLRip
Видео: XviD, ~ 2040 Кбит/с, 720x400
Аудио: AC3, 2 ch, 192 Кбит/с


Код:
General
Complete name               : C:Уголовное дело.2014. Files-x\03. Уголовное дело. 2014. WEB-DLRip.Files-x .avi
Format                      : AVI
Format/Info                 : Audio Video Interleave
File size                   : 739 MiB
Duration                    : 45 min 12 s
Overall bit rate            : 2 285 kb/s
Writing application         : VirtualDubMod 1.5.10.3 | www.virtualdub-fr.org || (build 2550/release)
Writing library             : VirtualDubMod build 2550/release
Video
ID                          : 0
Format                      : MPEG-4 Visual
Format profile              : Advanced Simple@L5
Format settings, BVOP       : 2
Format settings, QPel       : No
Format settings, GMC        : No warppoints
Format settings, Matrix     : Custom
Codec ID                    : XVID
Codec ID/Hint               : XviD
Duration                    : 45 min 12 s
Bit rate                    : 2 084 kb/s
Width                       : 720 pixels
Height                      : 400 pixels
Display aspect ratio        : 16:9
Frame rate                  : 25.000 FPS
Color space                 : YUV
Chroma subsampling          : 4:2:0
Bit depth                   : 8 bits
Scan type                   : Progressive
Compression mode            : Lossy
Bits/(Pixel*Frame)          : 0.289
Stream size                 : 674 MiB (91%)
Writing library             : XviD 73
Audio
ID                          : 1
Format                      : AC-3
Format/Info                 : Audio Coding 3
Format settings, Endianness : Big
Codec ID                    : 2000
Duration                    : 45 min 12 s
Bit rate mode               : Constant
Bit rate                    : 192 kb/s
Channel(s)                  : 2 channels
Channel positions           : Front: L R
Sampling rate               : 48.0 kHz
Frame rate                  : 31.250 FPS (1536 SPF)
Bit depth                   : 16 bits
Compression mode            : Lossy
Stream size                 : 62.1 MiB (8%)
Alignment                   : Split accross interleaves
Interleave, duration        : 40  ms (1.00 video frame)
Interleave, preload duratio : 500  ms
Service kind                : Complete Main
 




Релиз от:



   Похожие торренты   Торрент   Размер 
В этой теме нет новых непрочитанных сообщений. Уголовное дело [01 из 04] (2015) HDTVRip от Files-x

111 | 47

1.07 ГБ

В этой теме нет новых непрочитанных сообщений. Уголовное дело [01-04 из 4] (2015) HDTVRip-AVC от Files-х

216 | 29

2.7 ГБ

В этой теме нет новых непрочитанных сообщений. Уголовное дело [01 из 04] (2015) HDTVRip от Files-x

1292 | 189

2.15 ГБ

В этой теме нет новых непрочитанных сообщений. Уголовное дело [01-04 из 04] (2015) HDTVRip 720p от Files-х

173 | 22

4.55 ГБ

В этой теме нет новых непрочитанных сообщений. Уголовное дело [01 из 04] (2015) HDTV 1080i от MediaClub

72 | 12

4.95 ГБ

В этой теме нет новых непрочитанных сообщений. Уголовное дело [01 из 04] (2015) HDTV 1080i от MediaClub

136 | 34

9.8 ГБ

В этой теме нет новых непрочитанных сообщений. Уголовное дело [01из 04] (2015) SATRip от Рипер АМ

51 | 1

606.96 МБ




Вы не можете начинать темы
Вы не можете отвечать на сообщения
Вы не можете редактировать свои сообщения
Вы не можете удалять свои сообщения
Вы не можете добавлять вложения

Перейти:  
Для Мосгорсуда, Роскомнадзора и рекламодателей: mosgorsud-torrent[собачка]yandex.ru
 Вход
ppkBB3cker v.2 © 2008-2014 @ PPK
[ Time : 0.054s | 17 Queries | GZIP : Off ]

Торрент трекер RUTOR.IN, Не можете зайти на rutor.org? Какой новый адрес рутор? Какое зеркало рутор? Не работает rutor.org и зеркала? Тогда наш торрент специально для вас. Rutor.in неофициальное зеркало rutor. В случае если у Вас заблокирован rutor или вдруг Вы не можете на него зайти, то Вы без труда сможете скачать бесплатно и без рекламы последние новинки кино, игр, сериалов и прочего у нас, на Rutor.in. Не нужно использовать прокси, чтобы зайти на рутор, достаточно воспользоваться нашим ресурсом. Все новые фильмы, игры, сериалы, книги и музыка за 2013 и 2014 годы через торрент бесплатно. Скачивайте фильмы в хорошем качестве, игры для пк, xbox, playstation без регистрации. У нас вы найдете новые Зарубежные сериалы и Русские сериалы 2013, 2014, 2015 годов. Оставайтесь с нами, качайте любимые фильмы, игры, сериалы, книги и музыку.
cron