img image001 image001 image001 image001 image001 image001 image001 image001 image001 image001 image001 image001 image001 image001 image001 image001

Planets Sun Sun Sun
Статистика раздачи
Автор: Nickolas3434 | Размер: 3.18 ГБ | Добавлен: 24 июл 2017
Раздают: 0    Качают: 0
Скачать торрент
Скачать торрент
Описание торрента

СообщениеДобавлено: 24 июл 2017 

[b]Среда 15:30 / Suyoil Ohu Sesi Samsibbun / Wednesday 3:30 p.m.[/b]
1 сезон (1-16 серии из 16)

Перевод: Любительский (двухголосый закадровый) [SOFTBOX]

Субтитры: отсутствуют

Формат: HDTVRip-AVC, MP4, H.264, AAС

Страна: Южная Корея

Режиссер: Чхве Хён Джун

Жанр: мелодрама, комедия

Всего серий: 16
Продолжительность: 16 x ~ 00:25:00
Год выпуска: 2017

В ролях: Ли Хон Бин, Чжин Ки Чжу, Ан Бо Хён, Чха Чон Вон и др.

Описание: В центре событий дорамы девушка, брошенная своим парнем, которая готова всеми способами вернуть возлюбленного. Она обращается за помощью к своему другу детства, чтобы он притворился её новым парнем. Друзья создают страничку "lovestagram" (любовь + Instagram), чтобы заставить бывшего ревновать и вернуться обратно. Они будут тщательно изображать влюблённую парочку, а вот как далеко это зайдёт, нам предстоит узнать.

Название "Среда 15:30" создатели объясняют "Временем, когда женщина чувствует себя наиболее измотанной", поэтому они хотели бы, чтобы в это самое время женщины испытывали радость и удовольствие от просмотра дорамы.


Видео: 1280x720 (16:9), 29.970 fps, AVC (x264), ~2000 kbps, 0.085 bit/pixel
Аудио: 44.1 kHz, AAC-LC, 2 ch., ~ 192 kbps

General
Complete name : E:\[Озвучка SoftBox] Среда 15 30\[Озвучка SoftBox] Среда 15 30 01 серия.mp4
Format : MPEG-4
Format profile : Base Media
Codec ID : isom
File size : 354 mb
Duration : 1h 01mn
Overall bit rate : 2 154 Kbps
Writing application : Lavf57.63.100

Video
ID : 1
Format : AVC
Format/Info : Advanced Video Codec
Format profile :
Format settings, CABAC : Yes
Format settings, ReFrames : 3 frames
Format settings, GOP : M=4, N=32
Codec ID : avc1
Codec ID/Info : Advanced Video Coding
Duration : 1h 11mn
Bit rate mode : Variable
Bit rate : 2 000 Kbps
Width : 1 280 pixels
Height : 720 pixels
Display aspect ratio : 16:9
Frame rate mode : Constant
Frame rate : 29.970 fps
Color space : YUV
Chroma subsampling : 4:2:0
Bit depth : 8 bits
Scan type : Progressive
Bits/(Pixel*Frame) : 0.085
Stream size : 1 004 MiB (91%)
Writing library : x264 core 142 r2455 021c0dc
Encoding settings : cabac=1 / ref=4 / deblock=1:2:2 / analyse=0x3:0x113 / me=dia / subme=2 / psy=1 / psy_rd=1.00:0.00 / mixed_ref=1 / me_range=16 / chroma_me=1 / trellis=0 / 8x8dct=1 / cqm=0 / deadzone=21,11 / fast_pskip=1 / chroma_qp_offset=0 / threads=36 / lookahead_threads=5 / sliced_threads=0 / nr=0 / decimate=1 / interlaced=0 / bluray_compat=0 / constrained_intra=0 / bframes=3 / b_pyramid=1 / b_adapt=1 / b_bias=0 / direct=1 / weightb=1 / open_gop=0 / weightp=2 / keyint=60 / keyint_min=25 / scenecut=0 / intra_refresh=0 / rc_lookahead=40 / rc=abr / mbtree=1 / bitrate=1953 / ratetol=1.0 / qcomp=0.60 / qpmin=10 / qpmax=51 / qpstep=4 / ip_ratio=0.91 / aq=1:1.00
Tagged date : UTC 2017-07-20 14:33:56

Audio
ID : 2
Format : AAC
Format/Info : Advanced Audio Codec
Format profile : LC
Codec ID : 40
Duration : 1h 11mn
Bit rate mode : Constant
Bit rate : 192 Kbps
Channel(s) : 2 channels
Channel positions : Front: L R
Sampling rate : 44.1 KHz
Compression mode : Lossy
Stream size : 92.3 MiB (8%)
Tagged date : UTC 2017-07-21 09:16:53









   Похожие торренты   Торрент   Размер 
В этой теме нет новых непрочитанных сообщений. Школа 2017, 1 сезон 1-2 серии из 16 / Hakgyo 2017 / School 2017 [SOFTBOX] (Чжин Сок Пак) [2017, мелодрама, комедия, HDTVRip-AVC, L2]

5 | 0

1.89 ГБ

В этой теме нет новых непрочитанных сообщений. Красивая нуна, что покупает мне еду / Однажды под дождём, 1 сезон 1-14 серии из 16 / Pretty Noona Who Buys Me Food / Something in the Rain [SoftBox] (Ан Пан Сок) [2018, мелодрама, HDTVRip 720р, L2]

4 | 0

20.98 ГБ

В этой теме нет новых непрочитанных сообщений. Красивая нуна, что покупает мне еду / Однажды под дождём, 1 сезон 1-8 серии из 16 / Pretty Noona Who Buys Me Food / Something in the Rain [SoftBox] (Ан Пан Сок) [2018, мелодрама, HDTVRip 720р, L2]

2 | 0

12.31 ГБ

В этой теме нет новых непрочитанных сообщений. Круг, 1 сезон 1-12 серии из 12 / Sseokeul [SoftBox] (Мин Чжи Ки) [2017, фантастика, триллер, драма, HDTVRip-AVC, L2]

2 | 0

12.32 ГБ

В этой теме нет новых непрочитанных сообщений. Круг, 1 сезон 1-10 серии из 12 / Sseokeul [SoftBox] (Мин Чжи Ки) [2017, фантастика, триллер, драма, HDTVRip-AVC, L2]

48 | 16

10.36 ГБ

В этой теме нет новых непрочитанных сообщений. Прорвемся! / Мой путь / Сражайся как я / Сражаюсь за свой путь, 1 сезон 1-16 серии из 16 / Ssam, Maiwei [GREEN TEA] (Чжон Ли На) [2017, мелодрама, комедия, HDTVRip-AVC, L2]

0 | 0

20.52 ГБ

В этой теме нет новых непрочитанных сообщений. 800 слов, 3 сезон 1-2 серии из 8 / 800 words (Пино Амента, Майк Смит) [2017, комедия, мелодрама, PDTVRip, SUB]

6 | 0

701.82 МБ




Вы не можете начинать темы
Вы не можете отвечать на сообщения
Вы не можете редактировать свои сообщения
Вы не можете удалять свои сообщения
Вы не можете добавлять вложения

Перейти:  
 Вход
ppkBB3cker v.2 © 2008-2014 @ PPK
[ Time : 0.045s | 17 Queries | GZIP : Off ]

cron