img image001 image001 image001 image001 image001 image001 image001 image001 image001 image001 image001 image001 image001 image001 image001

Planets Sun Sun Sun
Статистика раздачи
Автор: Nickolas3434 | Размер: 3 ГБ | Добавлен: 09 авг 2017
Раздают: 6    Качают: 5
Скачать торрент
Скачать торрент
Описание торрента

СообщениеДобавлено: 09 авг 2017 

Рэй Донован / Ray Donovan


Перевод: Профессиональный (многоголосый, закадровый) IdeaFilm
Субтитры: отсутствуют
Формат: WEBRip 720p, MKV, H.264, AC3
Страна: США
Режиссер: Майкл Аппендаль, Джон Дал
Жанр: Криминал, драма
Всего серий: 12
Продолжительность: 1 х ~ 00:56:00
Год выпуска: 2017

В ролях: Лив Шрайбер, Паула Малкомсон, Кэтрин Монниг, Пуч Холл, Кэррис Дорси, Девон Бэгби, Джон Войт, Стивен Бауэр, Уильям Стэнфорд Дэвис, Майкл МакГрэйди, Фрэнк Уэйли, Эллиотт Гулд, Октавиус Дж. Джонсон, Эмбир Чилдерс

Описание: Отправляемся в США, штат Калифорния. Именно здесь живет Рэй Донован, занимающийся необычным бизнесом. Герой является экспертом в области устранения любых жизненных трудностей. Эффективность работы зависит от вознаграждения. К Рэю и его верным помощникам постоянно обращаются за помощью богатенькие дяденьки, мечтающие вернуть доброе имя и очистить испорченную репутацию. Однако решение проблем чужих людей - дело трудное. Рэй же опытен в своем деле. За многие годы работы он встречался с массой различных ситуаций, из которых выходил сухим. Однако в личной жизни Рэя случается непредвиденное. Двадцать лет минуло с тех пор, как его отец сел за решетку. День его освобождения близок. Главный герой переживает, что встреча с отцом может изменить его жизнь полностью!



Видео: 1280x720 (16:9), 23,976 fps, AVC (х264), , ~6740 kbps avg, 0.305 bit/pixel
Аудио #1 Rus: 48 kHz, AC3 Dolby Digital, 3/2 (L,C,R,l,r) + LFE ch, ~384 kbps
Аудио #2 Eng: 48 kHz, AC3 Dolby Digital, 3/2 (L,C,R,l,r) + LFE ch, ~640 kbps

Внимание, присутствует реклама!
Раздача ведется путем добавления новых серий.


Внимание! Раздача ведётся путём добавления новых серий; при каждом добавлении создаётся новый торрент. Чтобы начать докачку новой серии, пользователям необходимо сделать следующее:
(1) остановить скачивание,
(2) удалить старый торрент у себя из клиента (старые серии удалять не надо),
(3) скачать новый торрент и запустить его у себя в клиенте вместо старого, при этом указать клиенту путь в старую папку куда и должно происходить скачивание новых серий.

Ваш клиент при этом должен произвести хеширование (проверку) старой папки (если не производит сам - помогите ему сделать это), и будет докачивать только те серии которых у вас ещё нет. Старые серии при этом не удаляются, а продолжают раздаваться!

Eсли вы уже удалили старые серии, то предотвратить повторную закачку старых серий можно, отжав галочку в соответствующих местах при запуске нового торрента. По возможности, желательно не удалять старые серии как можно дольше, чтобы релизёр не столько продолжал раздавать старые серии, а смог сконцентрироваться на новых.



General
Unique ID : 195773864024643585464720004193075550208 (0x9348ACB97D51D434AC34FA53F8EF5800)
Complete name : ...\Ray.Donovan.S05E01.WEBRip.720p.IdeaFilm.mkv
Format : Matroska
Format version : Version 4 / Version 2
File size : 3.00 GiB
Duration : 55 min 22 s
Overall bit rate : 7 760 kb/s
Encoded date : UTC 2017-08-08 12:39:50
Writing application : mkvmerge v13.0.0 ('The Juggler') 64bit
Writing library : libebml v1.3.4 + libmatroska v1.4.5

Video
ID : 1
Format : AVC
Format/Info : Advanced Video Codec
Format profile :
Format settings, CABAC : Yes
Format settings, ReFrames : 3 frames
Codec ID : V_MPEG4/ISO/AVC
Duration : 55 min 22 s
Bit rate : 6 740 kb/s
Width : 1 280 pixels
Height : 720 pixels
Display aspect ratio : 16:9
Frame rate mode : Constant
Frame rate : 23.976 (24000/1001) FPS
Standard : NTSC
Color space : YUV
Chroma subsampling : 4:2:0
Bit depth : 8 bits
Scan type : Progressive
Bits/(Pixel*Frame) : 0.305
Stream size : 2.61 GiB (87%)
Language : English
Default : Yes
Forced : No
Color range : Limited
Color primaries : BT.709
Transfer characteristics : BT.709
Matrix coefficients : BT.709

Audio #1
ID : 2
Format : AC-3
Format/Info : Audio Coding 3
Format settings, Endianness : Big
Codec ID : A_AC3
Duration : 55 min 22 s
Bit rate mode : Constant
Bit rate : 384 kb/s
Channel(s) : 6 channels
Channel positions : Front: L C R, Side: L R, LFE
Sampling rate : 48.0 kHz
Frame rate : 31.250 FPS (1536 spf)
Bit depth : 16 bits
Compression mode : Lossy
Stream size : 152 MiB (5%)
Title : IDEAFILM
Language : Russian
Service kind : Complete Main
Default : Yes
Forced : No

Audio #2
ID : 3
Format : AC-3
Format/Info : Audio Coding 3
Codec ID : A_AC3
Duration : 54 min 49 s
Bit rate : 640 kb/s
Channel(s) : 6 channels
Sampling rate : 48.0 kHz
Frame rate : 31.250 FPS (1536 spf)
Compression mode : Lossy
Stream size : 251 MiB (8%)
Language : English
Default : No
Forced : No







   Похожие торренты   Торрент   Размер 
В этой теме нет новых непрочитанных сообщений. Рэй Донован, 5 сезон 1 серия из 12 / Ray Donovan [IdeaFilm] (Майкл Аппендаль, Джон Дал) [2017, криминал, драма, WEBRip, Р]

59 | 8

834.66 МБ

В этой теме нет новых непрочитанных сообщений. Рэй Донован, 5 сезон 1 серия из 12 / Ray Donovan [IdeaFilm] (Майкл Аппендаль, Джон Дал) [2017, криминал, драма, WEBRip 1080p, Р]

12 | 6

4.49 ГБ

В этой теме нет новых непрочитанных сообщений. Рэй Донован, 5 сезон 1-6 серии из 12 / Ray Donovan [IdeaFilm] (Майкл Аппендаль, Джон Дал) [2017, криминал, драма, WEBRip 720p, Р]

2 | 4

17.12 ГБ

В этой теме нет новых непрочитанных сообщений. Рэй Донован, 5 сезон 1-8 серии из 12 / Ray Donovan [IdeaFilm] (Майкл Аппендаль, Джон Дал) [2017, криминал, драма, WEBRip 720p, Р]

7 | 4

23.32 ГБ

В этой теме нет новых непрочитанных сообщений. Рэй Донован, 5 сезон 1-2 серии из 12 / Ray Donovan [IdeaFilm] (Майкл Аппендаль, Джон Дал) [2017, криминал, драма, WEBRip 720p, Р]

4 | 11

5.92 ГБ

В этой теме нет новых непрочитанных сообщений. Рэй Донован, 5 сезон 1-3 серии из 12 / Ray Donovan [IdeaFilm] (Майкл Аппендаль, Джон Дал) [2017, криминал, драма, WEBRip 720p, Р]

6 | 1

8.63 ГБ

В этой теме нет новых непрочитанных сообщений. Рэй Донован, 5 сезон 1-8 серии из 12 / Ray Donovan [IdeaFilm] (Майкл Аппендаль, Джон Дал) [2017, криминал, драма, WEBRip, Р]

11 | 10

6.34 ГБ




Вы не можете начинать темы
Вы не можете отвечать на сообщения
Вы не можете редактировать свои сообщения
Вы не можете удалять свои сообщения
Вы не можете добавлять вложения

Перейти:  
Для Мосгорсуда, Роскомнадзора и рекламодателей: mosgorsud-torrent[собачка]yandex.ru
 Вход
ppkBB3cker v.2 © 2008-2014 @ PPK
[ Time : 0.050s | 18 Queries | GZIP : Off ]

cron