img image001 image001 image001 image001 image001 image001 image001 image001 image001 image001 image001 image001 image001 image001 image001

Planets Sun Sun Sun

COVID-19 - Последняя информация о коронавирусе на сайте Минздрава


Статистика раздачи
Автор: Nickolas3434 | Размер: 1.46 ГБ | Добавлен: 10 авг 2017
Раздают: 32    Качают: 12
Скачать торрент
Скачать торрент
Описание торрента

СообщениеДобавлено: 10 авг 2017 

Название: В темноте
Оригинальное название: In the Dark
Год выпуска: 2017
Жанр:криминал
Выпущено: Великобритания, BBC
Режиссер: Ульрик Имтиаз Рольфсен, Жиль Банньер
В ролях:
Луиз Деламер, Джои Бэти, Пол Блэкуэлл, Лора Мосс, Кевин Саттон
Описание сериала:
Детектив из Манчестера, Хелен Уикс, возвращается в свой родной городок Поулсфорд в Дербишире, где были похищены 2 девочки, а задержанный за это мужчина оказывается мужем лучшей подруги детства Хэлен, Линды. Виноват ли он? И почему Хэлен так хочет помочь Линде, несмотря на то, что избегала возвращения в Поулсфорд все эти годы?


Страна: Великобритания
Продолжительность: ~ 00:55:00
Перевод: Любительский (Двухголосый) [RusFilm]
Субтитры: Отсутствуют
Озвучено студией RusFilm
Роли озвучивали: Нана Саркисян & Андрей Юрченко
Перевод: Евгения Боровкова
Звукорежиссер: Александр Хохлов
Сведение и монтаж: Руслан Раскопин
Файл
Формат: MKV
Качество: HDTVRip (720p)
Видео: MPEG-4 AVC, ~ 2000 Кбит/с, 1280x720
Аудио: 48 kHz, AC3 Dolby Digital, 2/0 (L,R) ch, ~192 kbps

Format : Matroska
Format version : Version 2
File size : 762 MiB
Duration : 55mn 7s
Overall bit rate : 1 931 Kbps
Writing application : libmatroska 1.4.1
Writing library : SolveigMM Matroska Muxer Version 1.0.1502.31
Video
ID : 1
Format : AVC
Format/Info : Advanced Video Codec
Format profile : Main@L3.1
Format settings, CABAC : Yes
Format settings, ReFrames : 4 frames
Codec ID : V_MPEG4/ISO/AVC
Duration : 55mn 7s
Bit rate : 1 701 Kbps
Width : 1 280 pixels
Height : 720 pixels
Display aspect ratio : 16:9
Frame rate mode : Constant
Frame rate : 25.000 fps
Color space : YUV
Chroma subsampling : 4:2:0
Bit depth : 8 bits
Scan type : Progressive
Bits/(Pixel*Frame) : 0.074
Stream size : 671 MiB (88%)
Writing library : x264 core 146
Encoding settings : cabac=1 / ref=1 / deblock=1:0:0 / analyse=0x1:0x1 / me=dia / subme=1 / psy=1 / psy_rd=1.00:0.00 / mixed_ref=0 / me_range=16 / chroma_me=1 / trellis=0 / 8x8dct=0 / cqm=0 / deadzone=21,11 / fast_pskip=1 / chroma_qp_offset=0 / threads=3 / lookahead_threads=1 / sliced_threads=0 / nr=0 / decimate=1 / interlaced=0 / bluray_compat=0 / constrained_intra=0 / bframes=3 / b_pyramid=2 / b_adapt=1 / b_bias=0 / direct=1 / weightb=1 / open_gop=0 / weightp=1 / keyint=250 / keyint_min=25 / scenecut=40 / intra_refresh=0 / rc=crf / mbtree=0 / crf=23.0 / qcomp=0.60 / qpmin=0 / qpmax=69 / qpstep=4 / ip_ratio=1.40 / pb_ratio=1.30 / aq=1:1.00
Language : English
Default : No
Forced : No
Audio
ID : 2
Format : AC-3
Format/Info : Audio Coding 3
Mode extension : CM (complete main)
Format settings, Endianness : Big
Codec ID : A_AC3
Duration : 55mn 7s
Bit rate mode : Constant
Bit rate : 192 Kbps
Channel(s) : 2 channels
Channel positions : Front: L R
Sampling rate : 48.0 KHz
Frame rate : 31.250 fps (1536 spf)
Bit depth : bit0
Compression mode : Lossy
Stream size : 75.7 MiB (10%)
Language : English
Default : No
Forced : No
Внимание! Раздача ведётся путём добавления новых серий; при каждом добавлении создаётся новый торрент. Чтобы начать докачку новой серии, пользователям необходимо сделать следующее:
(1) остановить скачивание,
(2) удалить старый торрент у себя из клиента (старые серии удалять не надо),
(3) скачать новый торрент и запустить его у себя в клиенте вместо старого, при этом указать клиенту путь в старую папку куда и должно происходить скачивание новых серий.
Ваш клиент при этом должен произвести хеширование (проверку) старой папки (если не производит сам - помогите ему сделать это), и будет докачивать только те серии которых у вас ещё нет. Старые серии при этом не удаляются, а продолжают раздаваться!
Eсли вы уже удалили старые серии, то предотвратить повторную закачку старых серий можно, отжав галочку в соответсвующих местах при запуске нового торрента. По возможности, желательно не удалять старые серии как можно дольше чтобы релизёр не столько продолжал раздавать старые серии, а смог сконцентрироваться на новых.


   Похожие торренты   Торрент   Размер 
В этой теме нет новых непрочитанных сообщений. В темноте / In the Dark [01х01-02 из 04] (2017) HDTVRip | RusFilm

30 | 0

1.38 ГБ

В этой теме нет новых непрочитанных сообщений. В темноте / In the Dark [S01] (2017) HDTVRip 720р | RusFilm

127 | 31

2.89 ГБ

В этой теме нет новых непрочитанных сообщений. Британские СС / SS-GB [01х01 из 05] (2017) HDTVRip 720р | RusFilm

0 | 0

1.29 ГБ

В этой теме нет новых непрочитанных сообщений. Британские СС / SS-GB [01х01-03 из 05] (2017) HDTVRip 720р | RusFilm

1 | 0

2.9 ГБ

В этой теме нет новых непрочитанных сообщений. Валькирия / Valkyrien [01х01 из 08] (2017) HDTVRip 720р | RusFilm

15 | 3

1.15 ГБ

В этой теме нет новых непрочитанных сообщений. Валькирия / Valkyrien [01х01-04 из 08] (2017) HDTVRip 720р | RusFilm

44 | 17

4.83 ГБ

В этой теме нет новых непрочитанных сообщений. Валькирия / Valkyrien [01х01-06 из 08] (2017) HDTVRip 720р | RusFilm

47 | 18

7.62 ГБ




Вы не можете начинать темы
Вы не можете отвечать на сообщения
Вы не можете редактировать свои сообщения
Вы не можете удалять свои сообщения
Вы не можете добавлять вложения

Перейти:  
Контактная информация: rstracker[пёсик]yandex.ru
 Вход
ppkBB3cker v.2 © 2008-2014 @ PPK
[ Time : 0.256s | 19 Queries | GZIP : Off ]

cron