img image001 image001 image001 image001 image001 image001 image001 image001 image001 image001 image001 image001 image001 image001 image001

Planets Sun Sun Sun
Статистика раздачи
Автор: Nickolas3434 | Размер: 5.88 ГБ | Добавлен: 12 авг 2017
Раздают: 72    Качают: 88
Скачать торрент
Скачать торрент
Описание торрента

СообщениеДобавлено: 12 авг 2017 

Проповедник / Пастырь, 2 сезон 1-8 серии из 13 / Preacher

«Капец какой могущественный...»

Перевод: Профессиональный (многоголосый, закадровый) [LostFilm]
Cубтитры: отсутствуют
Формат: WEB-DLRip (AVC), MKV, H.264, AC3
Страна: США
Режиссер: Эван Голдберг, Сет Роген, Майкл Словис
Жанр: фэнтези, драма, детектив, приключения
Всего серий: 13
Продолжительность: ~ 00:50:00 серия
Год выпуска: 2017

В ролях: Доминик Купер, Джозеф Гилган, Рут Негга, Йен Коллетти, Грэм МакТавиш, Джули Энн Эмери, Ноа Тейлор, Пип Торренс, Люси Гриффитс, У. Эрл Браун

Описание: Джесси Кастер - проповедник, который следуя данному отцу обещанию, вернулся в родной Энвиль, штат Техас, дабы наставлять местное население на путь истинный. Но грешников здесь оказалось столько, что Джесси настиг кризис веры, доведший его до рукоприкладства. Неизвестно, чем бы закончилось такое отпущение грехов, если бы в пастыря однажды не вселилась неведомая сущность по имени Генезис. Это дитя совокупления ангела и демона представляет собой одновременно чистый идеал и квинтэссенцию света, но также и сгусток абсолютного зла. Генезис - единственное существо во Вселенной, которое может встать вровень с Богом, если того пожелает, а его носитель автоматически становится самым могущественным существом в материальном мире.
Теперь у главного героя есть необычные способности и новая миссия - найти Бога, вероломно покинувшего небеса. Но искать Господа в одиночку сложно и не особо интересно. Поэтому себе в компаньоны Кастер берет бывшую подругу Тюльпан и ирландского вампира-выпивоху Кэссиди. Впереди у этой троицы - километры дорог и неожиданные встречи с самыми колоритными обитателями нашего и потустороннего миров. Каждая из них таит в себе нешуточную угрозу. Джесси и его друзьям предстоит помериться силами не только с разными бессмертными сущностями и падшими ангелами, но и с секретными организациями. И что ждет пастыря в конце пути?..
Это известно только тому, кого он ищет...


Рейтинг:

Видео: 1024х576 (16:9), 23,976 fps, AVC (х264), , 2000 Kbps avg, 0.141 bit/pixel
Аудио: 48.0 KHz, AC3 Dolby Digital, 6 channels (Front: L C R, Side: L R, LFE), 384 kbps avg

Доп. информация: звук перевода и оригинальная дорожка Dolby Digital 5.1
Полноэкранное изображение (16:9) без "черных" полос. Рип с HD1080р WEB-DL. Автор рипа: Д.И.С. Релиз группы:
    Общее
    Уникальный идентификатор : 330981288085428972011678061893725736498 (0xF900AD687C0F41ED49C25BB0D40C4E32)
    Полное имя : D:\Video\propovednik_s02e01_lostfilm_rip_DIS_[my-tfile.org].mkv
    Формат : Matroska
    Версия формата : Version 2
    Размер файла : 762 Мбайт
    Продолжительность : 44 м. 39 с.
    Общий поток : 2386 Кбит/сек
    Дата кодирования : UTC 2017-06-28 17:04:41 / UTC 2017-06-28 17:04:41
    Программа кодирования : Lavf54.63.104
    Библиотека кодирования : Lavf54.63.104

    Видео
    Идентификатор : 1
    Формат : AVC
    Формат/Информация : Advanced Video Codec
    Профиль формата :
    Параметр CABAC формата : Да
    Параметр ReFrames формата : 2 кадра
    Идентификатор кодека : V_MPEG4/ISO/AVC
    Продолжительность : 44 м. 39 с.
    Битрейт : 2000 Кбит/сек
    Ширина : 1024 пикселя
    Высота : 576 пикселей
    Соотношение сторон : 16:9
    Режим частоты кадров : Постоянный
    Частота кадров : 23,976 (24000/1001) кадра/сек
    Цветовое пространство : YUV
    Субдискретизация насыщенности : 4:2:0
    Битовая глубина : 8 бит
    Тип развёртки : Прогрессивная
    Бит/(Пиксели*Кадры) : 0.141
    Размер потока : 624 Мбайт (82%)
    Библиотека кодирования : x264 core 129
    Настройки программы : cabac=1 / ref=2 / deblock=1:0:0 / analyse=0x3:0x113 / me=hex / subme=6 / psy=1 / psy_rd=1.00:0.00 / mixed_ref=1 / me_range=16 / chroma_me=1 / trellis=0 / 8x8dct=1 / cqm=0 / deadzone=21,11 / fast_pskip=1 / chroma_qp_offset=-2 / threads=8 / lookahead_threads=1 / sliced_threads=0 / nr=0 / decimate=1 / interlaced=0 / bluray_compat=0 / constrained_intra=0 / bframes=0 / weightp=2 / keyint=250 / keyint_min=25 / scenecut=40 / intra_refresh=0 / rc_lookahead=40 / rc=2pass / mbtree=1 / bitrate=2000 / ratetol=1.0 / qcomp=0.60 / qpmin=10 / qpmax=51 / qpstep=4 / cplxblur=20.0 / qblur=0.5 / ip_ratio=1.41 / aq=1:1.00
    Default : Да
    Forced : Нет

    Аудио
    Идентификатор : 2
    Формат : AC-3
    Формат/Информация : Audio Coding 3
    Параметр Endianness формата : Big
    Идентификатор кодека : A_AC3
    Продолжительность : 44 м. 39 с.
    Вид битрейта : Постоянный
    Битрейт : 384 Кбит/сек
    Каналы : 6 каналов
    Расположение каналов : Front: L C R, Side: L R, LFE
    Частота : 48,0 КГц
    Частота кадров : 31,250 кадров/сек (1536 spf)
    Битовая глубина : 16 бит
    Метод сжатия : С потерями
    Размер потока : 123 Мбайт (16%)
    ServiceKind/String : Complete Main
    Default : Да
    Forced : Нет


При каждом добавлении новой серии создается новый торрент-файл. Чтобы начать докачку новой серии, пользователям необходимо сделать следующее:
(1) остановить скачивание
(2) удалить старый торрент у себя из клиента (старые серии удалять не надо)
(3) скачать новый торрент и запустить его у себя в клиенте вместо старого, при этом указать клиенту путь в старую папку куда и должно происходить скачивание новых серий.

Ваша программа (например UTorrent) при этом должна произвести хеширование (проверку) старой папки (если не производит сама - помогите ему сделать это), и будет докачивать только те серии которых у вас ещё нет. Старые серии при этом не удаляются, а продолжают раздаваться (Важно!)

Eсли вы уже удалили старые серии, то предотвратить повторную закачку старых серий можно, отжав галочку в соответствующих местах при запуске нового торрента. По возможности, желательно не удалять старые серии как можно дольше, чтобы релизёр не столько продолжал раздавать старые серии, а смог сконцентрироваться на новых



























   Похожие торренты   Торрент   Размер 
В этой теме нет новых непрочитанных сообщений. Проповедник / Пастырь, 2 сезон 1-6 серии из 13 / Preacher [LostFilm] (Эван Голдберг, Сет Роген, Майкл Словис) [2017, фэнтези, драма, детектив, приключения, WEB-DLRip-AVC, P]

16 | 8

4.41 ГБ

В этой теме нет новых непрочитанных сообщений. Проповедник / Пастырь, 2 сезон 1-2 серии из 13 / Preacher [LostFilm] (Эван Голдберг, Сет Роген, Майкл Словис) [2017, фэнтези, драма, детектив, приключения, WEB-DLRip-AVC, P]

31 | 6

1.46 ГБ

В этой теме нет новых непрочитанных сообщений. Проповедник / Пастырь, 2 сезон 1-7 серии из 13 / Preacher [LostFilm] (Эван Голдберг, Сет Роген, Майкл Словис) [2017, фэнтези, драма, детектив, приключения, WEB-DLRip-AVC, P]

60 | 27

5.15 ГБ

В этой теме нет новых непрочитанных сообщений. Проповедник / Пастырь, 2 сезон 1-5 серии из 13 / Preacher [LostFilm] (Эван Голдберг, Сет Роген, Майкл Словис) [2017, фэнтези, драма, детектив, приключения, WEB-DLRip-AVC, P]

73 | 46

3.65 ГБ

В этой теме нет новых непрочитанных сообщений. Проповедник, 1 сезон 1-10 серия из 10 / Preacher [Jaskier] (Эван Голдберг, Сет Роген, Майкл Словис) [2016, фэнтези, драма, детектив, приключения, WEB-DLRip, P]

48 | 7

5.77 ГБ

В этой теме нет новых непрочитанных сообщений. Проповедник, 2 сезон 1-9 серии из 13 / Preacher [IdeaFilm] (Эван Голдберг, Сет Роген, Скотт Уинант, Крейг Зиск) [2017, Фэнтези, драма, детектив, приключения, WEB-DLRip, P]

0 | 0

5.26 ГБ

В этой теме нет новых непрочитанных сообщений. Проповедник, 2 сезон 1-2 серии из 13 / Preacher [IdeaFilm] (Эван Голдберг, Сет Роген, Скотт Уинант, Крейг Зиск) [2017, Фэнтези, драма, детектив, приключения, WEB-DLRip, P]

93 | 37

1.17 ГБ




Вы не можете начинать темы
Вы не можете отвечать на сообщения
Вы не можете редактировать свои сообщения
Вы не можете удалять свои сообщения
Вы не можете добавлять вложения

Перейти:  
Для Мосгорсуда, Роскомнадзора и рекламодателей: mosgorsud-torrent[собачка]yandex.ru
 Вход
ppkBB3cker v.2 © 2008-2014 @ PPK
[ Time : 0.058s | 18 Queries | GZIP : Off ]

Торрент трекер RUTOR.IN, Не можете зайти на rutor.org? Какой новый адрес рутор? Какое зеркало рутор? Не работает rutor.org и зеркала? Тогда наш торрент специально для вас. Rutor.in неофициальное зеркало rutor. В случае если у Вас заблокирован rutor или вдруг Вы не можете на него зайти, то Вы без труда сможете скачать бесплатно и без рекламы последние новинки кино, игр, сериалов и прочего у нас, на Rutor.in. Не нужно использовать прокси, чтобы зайти на рутор, достаточно воспользоваться нашим ресурсом. Все новые фильмы, игры, сериалы, книги и музыка за 2013 и 2014 годы через торрент бесплатно. Скачивайте фильмы в хорошем качестве, игры для пк, xbox, playstation без регистрации. У нас вы найдете новые Зарубежные сериалы и Русские сериалы 2013, 2014, 2015 годов. Оставайтесь с нами, качайте любимые фильмы, игры, сериалы, книги и музыку.
cron