img image001 image001 image001 image001 image001 image001 image001 image001 image001 image001 image001 image001 image001 image001 image001

Planets Sun Sun Sun
Статистика раздачи
Автор: Nickolas3434 | Размер: 284.34 МБ | Добавлен: 12 авг 2017
Раздают: 6    Качают: 0
Скачать торрент
Скачать торрент
Описание торрента

СообщениеДобавлено: 12 авг 2017 

Такова жизнь / Offspring

Перевод: Отсутствует Субтитры: есть (русские, внешние) Ron.Studio™

Формат: PDTVRip, MP4, AVC, AAC
Страна: Австралия
Режиссер: Кейт Дэннис, Эмма Фриман, Ширли Баррет
Жанр: мелодрама, драма, комедия
Всего серий: 10
Продолжительность: 1 x 00:45:00
Год выпуска: 2017

В ролях: Ашер Кедди, Кэт Стюарт, Ричард Дэвис, Линда Кроппер, Джейн Харбер, Алисия Гарднер, Дебора Мелман и другие.
Описание: Врач-акушер Нина Праудман мечтает создать собственную семью, но ее требования к партнеру настолько высоки, что проблема, кажется, никогда не разрешится. Кроме того, члены семьи Нины и ее коллеги постоянно попадают в сложные или дурацкие ситуации, прося у Нины совета, помощи или предлагая ей свои рекомендации о том, как ей, по их мнению, следует строить жизнь. Седьмой сезон.

Рейтинги:

Видео: 720х404 (16:9), 25 fps, AVC (x264), , ~759 kbps, 0.104 bit/pixel
Аудио: 48 kHz, AAC LC, 2 ch, 121 kbps


General
Complete name :С:\Offspring.s07e01.mp4
Format : MPEG-4
Format profile : Base Media
Codec ID : isom (isom/iso2/avc1/mp41)
File size : 284 MiB
Duration : 44 min 47 s
Overall bit rate mode : Variable
Overall bit rate : 887 kb/s
Writing application : Lavf55.12.100

Video
ID : 2
Format : AVC
Format/Info : Advanced Video Codec
Format profile :
Format settings, CABAC : Yes
Format settings, ReFrames : 5 frames
Codec ID : avc1
Codec ID/Info : Advanced Video Coding
Duration : 44 min 47 s
Bit rate : 759 kb/s
Width : 720 pixels
Height : 404 pixels
Display aspect ratio : 16:9
Frame rate mode : Constant
Frame rate : 25.000 FPS
Color space : YUV
Chroma subsampling : 4:2:0
Bit depth : 8 bits
Scan type : Progressive
Bits/(Pixel*Frame) : 0.104
Stream size : 243 MiB (86%)
Writing library : x264 core 150 r2833 df79067
Encoding settings : cabac=1 / ref=5 / deblock=1:0:0 / analyse=0x3:0x113 / me=hex / subme=8 / psy=1 / psy_rd=1.00:0.00 / mixed_ref=1 / me_range=16 / chroma_me=1 / trellis=2 / 8x8dct=1 / cqm=0 / deadzone=21,11 / fast_pskip=1 / chroma_qp_offset=-2 / threads=6 / lookahead_threads=1 / sliced_threads=0 / nr=0 / decimate=1 / interlaced=0 / bluray_compat=0 / constrained_intra=0 / bframes=3 / b_pyramid=2 / b_adapt=1 / b_bias=0 / direct=3 / weightb=1 / open_gop=0 / weightp=2 / keyint=250 / keyint_min=25 / scenecut=40 / intra_refresh=0 / rc_lookahead=50 / rc=crf / mbtree=1 / crf=19.0 / qcomp=0.60 / qpmin=0 / qpmax=69 / qpstep=4 / ip_ratio=1.40 / aq=1:1.00
Color range : Limited
Matrix coefficients : BT.709

Audio
ID : 1
Format : AAC
Format/Info : Advanced Audio Codec
Format profile : LC
Codec ID : 40
Duration : 44 min 47 s
Bit rate mode : Variable
Bit rate : 121 kb/s
Maximum bit rate : 256 kb/s
Channel(s) : 2 channels
Channel positions : Front: L R
Sampling rate : 48.0 kHz
Frame rate : 46.875 FPS (1024 spf)
Compression mode : Lossy
Stream size : 38.6 MiB (14%)
Default : Yes
Alternate group : 1









   Похожие торренты   Торрент   Размер 
В этой теме нет новых непрочитанных сообщений. Такова жизнь, 7 сезон 1-3 серия из 10 / Offspring (Кейт Дэннис, Эмма Фриман, Ширли Баррет) [2017, мелодрама, драма, комедия, PDTVRip, SUB]

8 | 0

876.55 МБ

В этой теме нет новых непрочитанных сообщений. Такова жизнь, 7 сезон 1-4 серия из 10 / Offspring (Кейт Дэннис, Эмма Фриман, Ширли Баррет) [2017, мелодрама, драма, комедия, PDTVRip, SUB]

8 | 4

1.13 ГБ

В этой теме нет новых непрочитанных сообщений. Такова жизнь, 7 сезон 1-2 серия из 10 / Offspring (Кейт Дэннис, Эмма Фриман, Ширли Баррет) [2017, мелодрама, драма, комедия, PDTVRip, SUB]

0 | 4

589.62 МБ

В этой теме нет новых непрочитанных сообщений. Такова жизнь, 7 сезон 1-7 серия из 10 / Offspring (Кейт Дэннис, Эмма Фриман, Ширли Баррет) [2017, мелодрама, драма, комедия, PDTVRip, SUB]

0 | 2

1.97 ГБ

В этой теме нет новых непрочитанных сообщений. Такова жизнь, 6 сезон 1-9 серия из 10 / Offspring (Дебра Освальд, Иможен Бэнкс, Джон Эдвардс) [2016, комедия, мелодрама, PDTVRip, О+SUB]

2 | 4

3.07 ГБ

В этой теме нет новых непрочитанных сообщений. Такова жизнь, 6 сезон 1-8 серия из 10 / Offspring (Дебра Освальд, Иможен Бэнкс, Джон Эдвардс) [2016, комедия, мелодрама, PDTVRip, О+SUB]

2 | 2

2.74 ГБ

В этой теме нет новых непрочитанных сообщений. Такова жизнь, 6 сезон 1-10 серия из 10 / Offspring (Дебра Освальд, Иможен Бэнкс, Джон Эдвардс) [2016, комедия, мелодрама, PDTVRip, О+SUB]

9 | 0

3.42 ГБ




Вы не можете начинать темы
Вы не можете отвечать на сообщения
Вы не можете редактировать свои сообщения
Вы не можете удалять свои сообщения
Вы не можете добавлять вложения

Перейти:  
Для Мосгорсуда, Роскомнадзора и рекламодателей: mosgorsud-torrent[собачка]yandex.ru
 Вход
ppkBB3cker v.2 © 2008-2014 @ PPK
[ Time : 0.029s | 18 Queries | GZIP : Off ]

cron