img image001 image001 image001 image001 image001 image001 image001 image001 image001 image001 image001 image001 image001 image001 image001

Planets Sun Sun Sun
Статистика раздачи
Автор: Nickolas3434 | Размер: 5.35 ГБ | Добавлен: 12 авг 2017
Раздают: 5    Качают: 8
Скачать торрент
Скачать торрент
Описание торрента

СообщениеДобавлено: 12 авг 2017 

Грешница / The Sinner

Перевод: Профессиональный (многоголосый, закадровый) IdeaFilm
Субтитры: отсутствуют
Формат: WEBRip, MKV, h.264, AC3
Страна: США
Режиссер: Антонио Кампос, Брэд Андерсон
Жанр: Триллер
Всего серий: 8
Продолжительность: 2 х ~00:45:00
Год выпуска: 2017

В ролях: Джессика Бил, Эдриэнн Ловетт, Кристофер Эбботт, Элейн дель Валье, Дон Норвуд, Билл Пуллман

Описание: Мать одиночку обвиняют в убийстве. Все улики против неё, да и свидетелей так много, что дело замять невозможно. Все адвокаты знают, чем закончится это дело, поэтому не хотят браться за него, дабы не портить репутацию, но находится один человек, который встаёт на сторону девушки. Он считает, что виновная совершила содеянное не просто так. Один детектив берётся провести собственное расследование и узнает довольно интересную историю. Когда-то девушка была счастлива со своим молодым человеком, который сделал ей ребенка. Тот бросил будущую мать своего ребенка еще в положений, сломав её. Девушка каждый день самобичевала себя, страдая по ушедшей любви. В итоге она окончательно потеряла рассудок, когда сидела на пляже в один солнечный день....

Рейтинг на:

Видео: 1280x720 (16/9), 23,976 fps, AVC (х264), , ~7878 kbps avg, 0.357 bit/pixel
Аудио #1 Rus: :48 kHz, AC3 Dolby Digital, 3/2 (L,C,R,l,r) + LFE ch, ~384 kbps
Аудио #1 Eng: :48 kHz, AC3 Dolby Digital, 3/2 (L,C,R,l,r) + LFE ch, ~384 kbps

Внимание, присутствует реклама!


Внимание! Раздача ведётся путём добавления новых серий; при каждом добавлении создаётся новый торрент. Чтобы начать докачку новой серии, пользователям необходимо сделать следующее:
(1) остановить скачивание,
(2) удалить старый торрент у себя из клиента (старые серии удалять не надо),
(3) скачать новый торрент и запустить его у себя в клиенте вместо старого, при этом указать клиенту путь в старую папку куда и должно происходить скачивание новых серий.

Ваш клиент при этом должен произвести хеширование (проверку) старой папки (если не производит сам - помогите ему сделать это), и будет докачивать только те серии которых у вас ещё нет. Старые серии при этом не удаляются, а продолжают раздаваться!

Eсли вы уже удалили старые серии, то предотвратить повторную закачку старых серий можно, отжав галочку в соответствующих местах при запуске нового торрента. По возможности, желательно не удалять старые серии как можно дольше, чтобы релизёр не столько продолжал раздавать старые серии, а смог сконцентрироваться на новых.



Общее
Уникальный идентификатор : 196652537609811034268986788247715917144 (0x93F1E6AD537ECDDD9E7F1AD2DE932D58)
Полное имя : G:\IDEAFILM\The.Sinner.S01.WEBRip.720p\The.Sinner.S01E01.WEBRip.720p-IDEAFILM.mkv
Формат : Matroska
Версия формата : Version 4 / Version 2
Размер файла : 2,84 Гбайт
Продолжительность : 47 м. 0 с.
Общий поток : 8644 Кбит/сек
Дата кодирования : UTC 2017-08-04 16:24:55
Программа кодирования : mkvmerge v12.0.0 ('Trust / Lust') 64bit
Библиотека кодирования : libebml v1.3.4 + libmatroska v1.4.5

Видео
Идентификатор : 1
Формат : AVC
Формат/Информация : Advanced Video Codec
Профиль формата :
Параметр CABAC формата : Да
Параметр ReFrames формата : 3 кадра
Идентификатор кодека : V_MPEG4/ISO/AVC
Продолжительность : 47 м. 0 с.
Битрейт : 7878 Кбит/сек
Ширина : 1280 пикселей
Высота : 720 пикселей
Соотношение сторон : 16:9
Режим частоты кадров : Постоянный
Частота кадров : 23,976 (24000/1001) кадра/сек
Стандарт вещания : NTSC
Цветовое пространство : YUV
Субдискретизация насыщенности : 4:2:0
Битовая глубина : 8 бит
Тип развёртки : Прогрессивная
Бит/(Пиксели*Кадры) : 0.357
Размер потока : 2,59 Гбайт (91%)
Язык : English
Default : Да
Forced : Нет
Цветовой диапазон : Limited
Основные цвета : BT.709
Характеристики трансфера : BT.709
Коэффициенты матрицы : BT.709

Аудио #1
Идентификатор : 2
Формат : AC-3
Формат/Информация : Audio Coding 3
Расширение режима : CM (complete main)
Параметр Endianness формата : Big
Идентификатор кодека : A_AC3
Продолжительность : 47 м. 0 с.
Вид битрейта : Постоянный
Битрейт : 384 Кбит/сек
Каналы : 6 каналов
Расположение каналов : Front: L C R, Side: L R, LFE
Частота : 48,0 КГц
Частота кадров : 31,250 кадров/сек (1536 spf)
Метод сжатия : С потерями
Размер потока : 129 Мбайт (4%)
Заголовок : IDEAFILM
Язык : Russian
Default : Да
Forced : Нет

Аудио #2
Идентификатор : 3
Формат : AC-3
Формат/Информация : Audio Coding 3
Расширение режима : CM (complete main)
Параметр Endianness формата : Big
Идентификатор кодека : A_AC3
Продолжительность : 46 м. 27 с.
Вид битрейта : Постоянный
Битрейт : 384 Кбит/сек
Каналы : 6 каналов
Расположение каналов : Front: L C R, Side: L R, LFE
Частота : 48,0 КГц
Частота кадров : 31,250 кадров/сек (1536 spf)
Метод сжатия : С потерями
Задержка видео : 33 с. 0 мс.
Размер потока : 128 Мбайт (4%)
Язык : English
Default : Нет
Forced : Нет







   Похожие торренты   Торрент   Размер 
В этой теме нет новых непрочитанных сообщений. Грешница, 1 сезон 1 серии из 12 / The Sinner [IdeaFilm] (Антонио Кампос, Брэд Андерсон) [2017, Триллер, WEBRip 720p, P]

16 | 4

2.84 ГБ

В этой теме нет новых непрочитанных сообщений. Грешница, 1 сезон 1 серии из 12 / The Sinner [IdeaFilm] (Антонио Кампос, Брэд Андерсон) [2017, Триллер, WEBRip, P]

57 | 6

701.59 МБ

В этой теме нет новых непрочитанных сообщений. Грешница, 1 сезон 1-2 серии из 8 / The Sinner [IdeaFilm] (Антонио Кампос, Брэд Андерсон) [2017, Триллер, WEBRip, P]

30 | 43

1.25 ГБ

В этой теме нет новых непрочитанных сообщений. Грешница, 1 сезон 1-2 серии из 8 / The Sinner [IdeaFilm] (Антонио Кампос, Брэд Андерсон) [2017, Триллер, WEBRip 1080p, P]

11 | 8

7.2 ГБ

В этой теме нет новых непрочитанных сообщений. Грешница, 1 сезон 1 серии из 12 / The Sinner [IdeaFilm] (Антонио Кампос, Брэд Андерсон) [2017, Триллер, WEBRip 1080p, P]

10 | 6

4.04 ГБ

В этой теме нет новых непрочитанных сообщений. Грешница, 1 сезон 1-2 серии из 8 / The Sinner [LostFilm] (Дерек Симондз, Брэд Андерсон) [2017, психологический триллер, драма, детектив, WEB-DLRip, P]

58 | 23

1.09 ГБ

В этой теме нет новых непрочитанных сообщений. Грешница, 1 сезон 1 серия из 8 / The Sinner [LostFilm] (Дерек Симондз, Брэд Андерсон) [2017, психологический триллер, драма, детектив, WEB-DLRip, P]

46 | 0

580.03 МБ




Вы не можете начинать темы
Вы не можете отвечать на сообщения
Вы не можете редактировать свои сообщения
Вы не можете удалять свои сообщения
Вы не можете добавлять вложения

Перейти:  
Для Мосгорсуда, Роскомнадзора и рекламодателей: mosgorsud-torrent[собачка]yandex.ru
 Вход
ppkBB3cker v.2 © 2008-2014 @ PPK
[ Time : 0.070s | 19 Queries | GZIP : Off ]

Торрент трекер RUTOR.IN, Не можете зайти на rutor.org? Какой новый адрес рутор? Какое зеркало рутор? Не работает rutor.org и зеркала? Тогда наш торрент специально для вас. Rutor.in неофициальное зеркало rutor. В случае если у Вас заблокирован rutor или вдруг Вы не можете на него зайти, то Вы без труда сможете скачать бесплатно и без рекламы последние новинки кино, игр, сериалов и прочего у нас, на Rutor.in. Не нужно использовать прокси, чтобы зайти на рутор, достаточно воспользоваться нашим ресурсом. Все новые фильмы, игры, сериалы, книги и музыка за 2013 и 2014 годы через торрент бесплатно. Скачивайте фильмы в хорошем качестве, игры для пк, xbox, playstation без регистрации. У нас вы найдете новые Зарубежные сериалы и Русские сериалы 2013, 2014, 2015 годов. Оставайтесь с нами, качайте любимые фильмы, игры, сериалы, книги и музыку.
cron