img image001 image001 image001 image001 image001 image001 image001 image001 image001 image001 image001 image001 image001 image001 image001

Planets Sun Sun Sun
Статистика раздачи
Автор: Nickolas3434 | Размер: 8.92 ГБ | Добавлен: 12 авг 2017
Раздают: 14    Качают: 13
Скачать торрент
Скачать торрент
Описание торрента

СообщениеДобавлено: 12 авг 2017 

Форс-мажоры / Suits

Перевод: Профессиональный (многоголосый, закадровый) IdeaFilm
Субтитры: отсутствуют
Формат: WEB-DL, MKV, h.264, AC3
Страна: США
Режиссер: Кевин Брэй, Джон Скотт
Жанр: Драма, криминал
Всего серий: 8
Продолжительность: 5 х ~00:45:00
Год выпуска: 2017

В ролях: Меган Маркл, Гэбриел Махт, Рик Хоффман, Джина Торрес, Патрик Дж. Адамс, Сара Рафферти, Кристен Буш, Джули Энн Эмери, Хлоя Кмарада, Лейн Ретмер, Джасинда Бэрретт

Описание: Случайная встреча блестящего адвоката Харви Спектра и парня – недоучки с гениальной памятью и математическим талантом Майка Росса приводит к неожиданным последствиям: впечатлившись способностями молодого человека, юрист нанимает его в качестве помощника. Так был создан необыкновенно продуктивно выполняющий свою работу адвокатский тандем, скрепленный дружбой и преданностью его участников. Однако наступает момент, когда тщательно хранимый секрет восходящего светила юридических кругов Майка Росса становится опасным для обоих друзей

Рейтинг на:

Видео: 1920x1080 (16/9), 23,976 fps, AVC (х264), , ~5144 kbps avg, 0.103 bit/pixel
Аудио #1 Rus: :48 kHz, AC3 Dolby Digital, 3/2 (L,C,R,l,r) + LFE ch, ~384 kbps
Аудио #1 Eng: :48 kHz, AC3 Dolby Digital, 3/2 (L,C,R,l,r) + LFE ch, ~384 kbps

Внимание, присутствует реклама!


Внимание! Раздача ведётся путём добавления новых серий; при каждом добавлении создаётся новый торрент. Чтобы начать докачку новой серии, пользователям необходимо сделать следующее:
(1) остановить скачивание,
(2) удалить старый торрент у себя из клиента (старые серии удалять не надо),
(3) скачать новый торрент и запустить его у себя в клиенте вместо старого, при этом указать клиенту путь в старую папку куда и должно происходить скачивание новых серий.

Ваш клиент при этом должен произвести хеширование (проверку) старой папки (если не производит сам - помогите ему сделать это), и будет докачивать только те серии которых у вас ещё нет. Старые серии при этом не удаляются, а продолжают раздаваться!

Eсли вы уже удалили старые серии, то предотвратить повторную закачку старых серий можно, отжав галочку в соответствующих местах при запуске нового торрента. По возможности, желательно не удалять старые серии как можно дольше, чтобы релизёр не столько продолжал раздавать старые серии, а смог сконцентрироваться на новых.



Общее
Уникальный идентификатор : 224054076277020006766444293027739766925 (0xA88F3ED6E2B43211ADB4FA784F94908D)
Полное имя : G:\IDEAFILM\Suits.S07.WEB-DL.1080p\Suits.S07E01.WEB-DL.1080p-IDEAFILM.mkv
Формат : Matroska
Версия формата : Version 4 / Version 2
Размер файла : 1,89 Гбайт
Продолжительность : 45 м. 49 с.
Общий поток : 5909 Кбит/сек
Дата кодирования : UTC 2017-07-14 17:56:47
Программа кодирования : mkvmerge v12.0.0 ('Trust / Lust') 64bit
Библиотека кодирования : libebml v1.3.4 + libmatroska v1.4.5

Видео
Идентификатор : 1
Формат : AVC
Формат/Информация : Advanced Video Codec
Профиль формата :
Параметр CABAC формата : Да
Параметр ReFrames формата : 3 кадра
Идентификатор кодека : V_MPEG4/ISO/AVC
Продолжительность : 45 м. 49 с.
Битрейт : 5144 Кбит/сек
Ширина : 1920 пикселей
Высота : 1080 пикселей
Соотношение сторон : 16:9
Режим частоты кадров : Постоянный
Частота кадров : 23,976 (24000/1001) кадра/сек
Стандарт вещания : NTSC
Цветовое пространство : YUV
Субдискретизация насыщенности : 4:2:0
Битовая глубина : 8 бит
Тип развёртки : Прогрессивная
Бит/(Пиксели*Кадры) : 0.103
Размер потока : 1,65 Гбайт (87%)
Язык : English
Default : Да
Forced : Нет
Цветовой диапазон : Limited
Основные цвета : BT.709
Характеристики трансфера : BT.709
Коэффициенты матрицы : BT.709

Аудио #1
Идентификатор : 2
Формат : AC-3
Формат/Информация : Audio Coding 3
Расширение режима : CM (complete main)
Параметр Endianness формата : Big
Идентификатор кодека : A_AC3
Продолжительность : 45 м. 49 с.
Вид битрейта : Постоянный
Битрейт : 384 Кбит/сек
Каналы : 6 каналов
Расположение каналов : Front: L C R, Side: L R, LFE
Частота : 48,0 КГц
Частота кадров : 31,250 кадров/сек (1536 spf)
Метод сжатия : С потерями
Размер потока : 126 Мбайт (6%)
Заголовок : IDEAFILM
Язык : Russian
Default : Да
Forced : Нет

Аудио #2
Идентификатор : 3
Формат : AC-3
Формат/Информация : Audio Coding 3
Расширение режима : CM (complete main)
Параметр Endianness формата : Big
Идентификатор кодека : A_AC3
Продолжительность : 45 м. 16 с.
Вид битрейта : Постоянный
Битрейт : 384 Кбит/сек
Каналы : 6 каналов
Расположение каналов : Front: L C R, Side: L R, LFE
Частота : 48,0 КГц
Частота кадров : 31,250 кадров/сек (1536 spf)
Метод сжатия : С потерями
Задержка видео : 33 с. 0 мс.
Размер потока : 124 Мбайт (6%)
Язык : English
Default : Нет
Forced : Нет







   Похожие торренты   Торрент   Размер 
В этой теме нет новых непрочитанных сообщений. Форс-мажоры, 7 сезон 1-6 серия из 8 / Suits [IdeaFilm] (Кевин Брэй, Джон Скотт) [2017, драма, криминал WEB-DL 1080p, Р]

7 | 11

10.67 ГБ

В этой теме нет новых непрочитанных сообщений. Форс-мажоры, 7 сезон 1-2 серия из 8 / Suits [IdeaFilm] (Кевин Брэй, Джон Скотт) [2017, драма, криминал WEB-DL 1080p, Р]

7 | 9

3.63 ГБ

В этой теме нет новых непрочитанных сообщений. Форс-мажоры, 7 сезон 1-3 серия из 8 / Suits [IdeaFilm] (Кевин Брэй, Джон Скотт) [2017, драма, криминал WEB-DL 1080p, Р]

4 | 6

5.37 ГБ

В этой теме нет новых непрочитанных сообщений. Форс-мажоры, 7 сезон 1-4 серия из 8 / Suits [IdeaFilm] (Кевин Брэй, Джон Скотт) [2017, драма, криминал WEB-DL 1080p, Р]

8 | 13

7.12 ГБ

В этой теме нет новых непрочитанных сообщений. Форс-мажоры, 7 сезон 1-5 серия из 8 / Suits [IdeaFilm] (Кевин Брэй, Джон Скотт) [2017, драма, криминал WEB-DL 720p, Р]

8 | 8

7.13 ГБ

В этой теме нет новых непрочитанных сообщений. Форс-мажоры, 7 сезон 1-6 серия из 8 / Suits [IdeaFilm] (Кевин Брэй, Джон Скотт) [2017, драма, криминал WEB-DLRip, Р]

13 | 5

3.42 ГБ

В этой теме нет новых непрочитанных сообщений. Форс-мажоры, 7 сезон 1-6 серия из 8 / Suits [IdeaFilm] (Кевин Брэй, Джон Скотт) [2017, драма, криминал WEB-DL 720p, Р]

11 | 6

8.52 ГБ




Вы не можете начинать темы
Вы не можете отвечать на сообщения
Вы не можете редактировать свои сообщения
Вы не можете удалять свои сообщения
Вы не можете добавлять вложения

Перейти:  
Для Мосгорсуда, Роскомнадзора и рекламодателей: mosgorsud-torrent[собачка]yandex.ru
 Вход
ppkBB3cker v.2 © 2008-2014 @ PPK
[ Time : 0.061s | 19 Queries | GZIP : Off ]

Торрент трекер RUTOR.IN, Не можете зайти на rutor.org? Какой новый адрес рутор? Какое зеркало рутор? Не работает rutor.org и зеркала? Тогда наш торрент специально для вас. Rutor.in неофициальное зеркало rutor. В случае если у Вас заблокирован rutor или вдруг Вы не можете на него зайти, то Вы без труда сможете скачать бесплатно и без рекламы последние новинки кино, игр, сериалов и прочего у нас, на Rutor.in. Не нужно использовать прокси, чтобы зайти на рутор, достаточно воспользоваться нашим ресурсом. Все новые фильмы, игры, сериалы, книги и музыка за 2013 и 2014 годы через торрент бесплатно. Скачивайте фильмы в хорошем качестве, игры для пк, xbox, playstation без регистрации. У нас вы найдете новые Зарубежные сериалы и Русские сериалы 2013, 2014, 2015 годов. Оставайтесь с нами, качайте любимые фильмы, игры, сериалы, книги и музыку.
cron