img image001 image001 image001 image001 image001 image001 image001 image001 image001 image001 image001 image001 image001 image001 image001

Planets Sun Sun Sun
Статистика раздачи
Автор: Nickolas3434 | Размер: 1.68 ГБ | Добавлен: 12 авг 2017
Раздают: 30    Качают: 0
Скачать торрент
Скачать торрент
Описание торрента

СообщениеДобавлено: 12 авг 2017 

Мистер Мерседес / Mr. Mercedes

Перевод: Профессиональный (многоголосый, закадровый) IdeaFilm
Субтитры: отсутствуют
Формат: WEB-DL, MKV, h.264, AC3
Страна: США
Режиссер: Джек Бендер
Жанр: триллер
Всего серий: 10
Продолжительность: 1 х ~00:45:00
Год выпуска: 2017

В ролях: Брендан Глисон, Джаррель Джером, Гарри Тредэвэй, Келли Линч, Эд Андерсон, Роб Нитер, Джастин Люпе

Описание: Отставной полицейский Билл Ходжес возвращается к работе, так как ему не дает покоя нераскрытое дело — жестокое убийство восьми человек. Брейди Хартфилд не может забыть пьянящее чувство, когда на угнанном «мерседесе» он врезался в группу ни в чем не повинных людей. Брейди не хочет останавливаться — он уже планирует новое преступление, на этот раз намного более масштабное. Биллу Ходжесу и его команде необходимо опередить его и спасти жизнь уже не десяткам, а сотням людей.

Рейтинг на:

Видео: 1280x720 (16/9), 30,000 fps, AVC (х264), , ~3794 kbps avg, 0.137 bit/pixel
Аудио #1 Rus: :48 kHz, AC3 Dolby Digital, 2 ch, ~192 kbps
Аудио #1 Eng: :44,1 kHz, AC3 Dolby Digital, 2 ch, ~192 kbps

Внимание, присутствует реклама!


Внимание! Раздача ведётся путём добавления новых серий; при каждом добавлении создаётся новый торрент. Чтобы начать докачку новой серии, пользователям необходимо сделать следующее:
(1) остановить скачивание,
(2) удалить старый торрент у себя из клиента (старые серии удалять не надо),
(3) скачать новый торрент и запустить его у себя в клиенте вместо старого, при этом указать клиенту путь в старую папку куда и должно происходить скачивание новых серий.

Ваш клиент при этом должен произвести хеширование (проверку) старой папки (если не производит сам - помогите ему сделать это), и будет докачивать только те серии которых у вас ещё нет. Старые серии при этом не удаляются, а продолжают раздаваться!

Eсли вы уже удалили старые серии, то предотвратить повторную закачку старых серий можно, отжав галочку в соответствующих местах при запуске нового торрента. По возможности, желательно не удалять старые серии как можно дольше, чтобы релизёр не столько продолжал раздавать старые серии, а смог сконцентрироваться на новых.



Общее
Уникальный идентификатор : 254328800807960579499575980860785288821 (0xBF55F200775DCABF981720137053E675)
Полное имя : G:\IDEAFILM\Mr.Mercedes.S01.WEB-DL.720p\Mr.Mercedes.S01E01.WEB-DL.720p-IDEAFILM.mkv
Формат : Matroska
Версия формата : Version 4 / Version 2
Размер файла : 1,68 Гбайт
Продолжительность : 57 м. 36 с.
Общий поток : 4179 Кбит/сек
Дата кодирования : UTC 2017-08-11 14:49:41
Программа кодирования : mkvmerge v12.0.0 ('Trust / Lust') 64bit
Библиотека кодирования : libebml v1.3.4 + libmatroska v1.4.5

Видео
Идентификатор : 1
Формат : AVC
Формат/Информация : Advanced Video Codec
Профиль формата :
Параметр CABAC формата : Да
Параметр ReFrames формата : 3 кадра
Идентификатор кодека : V_MPEG4/ISO/AVC
Продолжительность : 57 м. 36 с.
Битрейт : 3794 Кбит/сек
Ширина : 1280 пикселей
Высота : 720 пикселей
Соотношение сторон : 16:9
Режим частоты кадров : Постоянный
Частота кадров : 30,000 кадров/сек
Стандарт вещания : NTSC
Цветовое пространство : YUV
Субдискретизация насыщенности : 4:2:0
Битовая глубина : 8 бит
Тип развёртки : Прогрессивная
Бит/(Пиксели*Кадры) : 0.137
Размер потока : 1,53 Гбайт (91%)
Язык : English
Default : Да
Forced : Нет
Цветовой диапазон : Limited
Основные цвета : BT.709
Характеристики трансфера : BT.709
Коэффициенты матрицы : BT.709

Аудио #1
Идентификатор : 2
Формат : AC-3
Формат/Информация : Audio Coding 3
Расширение режима : CM (complete main)
Параметр Endianness формата : Big
Идентификатор кодека : A_AC3
Продолжительность : 57 м. 36 с.
Вид битрейта : Постоянный
Битрейт : 192 Кбит/сек
Каналы : 2 канала
Расположение каналов : Front: L R
Частота : 48,0 КГц
Частота кадров : 31,250 кадров/сек (1536 spf)
Метод сжатия : С потерями
Размер потока : 79,1 Мбайт (5%)
Заголовок : IDEAFILM
Язык : Russian
Default : Да
Forced : Нет

Аудио #2
Идентификатор : 3
Формат : AC-3
Формат/Информация : Audio Coding 3
Расширение режима : CM (complete main)
Параметр Endianness формата : Big
Идентификатор кодека : A_AC3
Продолжительность : 57 м. 3 с.
Вид битрейта : Постоянный
Битрейт : 192 Кбит/сек
Каналы : 2 канала
Расположение каналов : Front: L R
Частота : 44,1 КГц
Частота кадров : 28,711 кадров/сек (1536 spf)
Метод сжатия : С потерями
Задержка видео : 33 с. 0 мс.
Размер потока : 78,4 Мбайт (5%)
Язык : English
Default : Нет
Forced : Нет







   Похожие торренты   Торрент   Размер 
В этой теме нет новых непрочитанных сообщений. Мистер Мерседес, 1 сезон 1 серии из 10 / Mr. Mercedes [IdeaFilm] (Джек Бендер) [2017, триллер, WEB-DLRip, P]

16 | 0

701.97 МБ

В этой теме нет новых непрочитанных сообщений. Мистер Мерседес, 1 сезон 1 серии из 10 / Mr. Mercedes [D1] (Джек Бендер) [2017, Триллер, детектив, Web-DL 720p, L]

36 | 0

1.66 ГБ

В этой теме нет новых непрочитанных сообщений. Мистер Мерседес, 1 сезон 1 серия из 10 / Mr. Mercedes [ColdFilm] (Дэвид Э. Келли, Джек Бендер) [2017, триллер, WEBRip, L]

35 | 0

595.42 МБ

В этой теме нет новых непрочитанных сообщений. Мистер Мерседес, 1 сезон 1 серия из 10 / Mr. Mercedes [Amedia] (Дэвид Э. Келли, Джек Бендер) [2017, триллер, WEBRip, P]

73 | 0

749.96 МБ

В этой теме нет новых непрочитанных сообщений. Грешница, 1 сезон 1 серии из 12 / The Sinner [IdeaFilm] (Антонио Кампос, Брэд Андерсон) [2017, Триллер, WEBRip 720p, P]

16 | 4

2.84 ГБ

В этой теме нет новых непрочитанных сообщений. Грешница, 1 сезон 1-2 серии из 8 / The Sinner [IdeaFilm] (Антонио Кампос, Брэд Андерсон) [2017, Триллер, WEBRip 720p, P]

5 | 8

5.35 ГБ

В этой теме нет новых непрочитанных сообщений. Самурай Джек (5 сезон, 1-10 серии из 10) / Samurai Jack (Генндий Тартаковский) [2017, Приключение, фантастика, боевик, триллер, WEBRip 1080p] MVO

2 | 0

8.94 ГБ




Вы не можете начинать темы
Вы не можете отвечать на сообщения
Вы не можете редактировать свои сообщения
Вы не можете удалять свои сообщения
Вы не можете добавлять вложения

Перейти:  
Для Мосгорсуда, Роскомнадзора и рекламодателей: mosgorsud-torrent[собачка]yandex.ru
 Вход
ppkBB3cker v.2 © 2008-2014 @ PPK
[ Time : 0.049s | 18 Queries | GZIP : Off ]

Торрент трекер RUTOR.IN, Не можете зайти на rutor.org? Какой новый адрес рутор? Какое зеркало рутор? Не работает rutor.org и зеркала? Тогда наш торрент специально для вас. Rutor.in неофициальное зеркало rutor. В случае если у Вас заблокирован rutor или вдруг Вы не можете на него зайти, то Вы без труда сможете скачать бесплатно и без рекламы последние новинки кино, игр, сериалов и прочего у нас, на Rutor.in. Не нужно использовать прокси, чтобы зайти на рутор, достаточно воспользоваться нашим ресурсом. Все новые фильмы, игры, сериалы, книги и музыка за 2013 и 2014 годы через торрент бесплатно. Скачивайте фильмы в хорошем качестве, игры для пк, xbox, playstation без регистрации. У нас вы найдете новые Зарубежные сериалы и Русские сериалы 2013, 2014, 2015 годов. Оставайтесь с нами, качайте любимые фильмы, игры, сериалы, книги и музыку.
cron