img image001 image001 image001 image001 image001 image001 image001 image001 image001 image001 image001 image001 image001 image001 image001

Planets Sun Sun Sun
Статистика раздачи
Автор: Nickolas3434 | Размер: 11.88 ГБ | Добавлен: 12 авг 2017
Раздают: 6    Качают: 12
Скачать торрент
Скачать торрент
Описание торрента

СообщениеДобавлено: 12 авг 2017 

Снегопад / Snowfall

Перевод: Профессиональный (многоголосый, закадровый) IdeaFilm
Субтитры: отсутствуют
Формат: WEB-DL, MKV, H.264, AC3
Страна: США
Режиссер: Адиль Эль Арби, Билал Фалла, Джон Синглтон
Жанр: драма
Всего серий: 10
Продолжительность: 6 х ~00:55:00
Год выпуска: 2017

В ролях: Демсон Идрис, Серхио Перис-Менчета, Айзиа Джон, Эймин Джозеф, Клаудия Абрего, Рой Авигдори, Лиана Легаспи, Адам Карст, Бернардо Бадилло, Ник Бишоп, Маркис Мур, Альберт А Вега, Розалинд Лотт, Алон Абутбул, Катрин Чен, Иоланда Инглиш, Тейлор Ковальски, Элли Патрикиос, Тринити Стоукс

Описание: Сериал о начале кокаиновой эпидемии в Лос-Анджелесе начала 1980-х, когда на улицах Америки появился дешёвый крэк из Доминиканы, и страну захлестнул неконтролируемый рост преступности. События увидены глазами трёх главных героев: уличного торговца Джерома, гангстера Густаво и Леона, парня из благопристойного семейства.

Рейтинг на:

Видео: 1916x1076 (16/9), 23,976 fps, AVC (х264), , ~5039 kbps avg, 0.102 bit/pixel
Аудио #1 Rus: :48 kHz, AC3 Dolby Digital, 3/2 (L,C,R,l,r) + LFE ch, ~384 kbps
Аудио #1 Eng: :48 kHz, AC3 Dolby Digital, 3/2 (L,C,R,l,r) + LFE ch, ~384 kbps

Внимание, присутствует реклама!


Внимание! Раздача ведётся путём добавления новых серий; при каждом добавлении создаётся новый торрент. Чтобы начать докачку новой серии, пользователям необходимо сделать следующее:
(1) остановить скачивание,
(2) удалить старый торрент у себя из клиента (старые серии удалять не надо),
(3) скачать новый торрент и запустить его у себя в клиенте вместо старого, при этом указать клиенту путь в старую папку куда и должно происходить скачивание новых серий.

Ваш клиент при этом должен произвести хеширование (проверку) старой папки (если не производит сам - помогите ему сделать это), и будет докачивать только те серии которых у вас ещё нет. Старые серии при этом не удаляются, а продолжают раздаваться!

Eсли вы уже удалили старые серии, то предотвратить повторную закачку старых серий можно, отжав галочку в соответствующих местах при запуске нового торрента. По возможности, желательно не удалять старые серии как можно дольше, чтобы релизёр не столько продолжал раздавать старые серии, а смог сконцентрироваться на новых.



Общее
Уникальный идентификатор : 230170004635949567390707324019047929200 (0xAD29216363B1FB9BAFCDFB0A042C1570)
Полное имя : G:\IDEAFILM\Snowfall.S01.WEB-DL.1080p\Snowfall.S01E01.WEB-DL.1080p-IDEAFILM.mkv
Формат : Matroska
Версия формата : Version 4 / Version 2
Размер файла : 2,41 Гбайт
Продолжительность : 59 м. 27 с.
Общий поток : 5805 Кбит/сек
Дата кодирования : UTC 2017-07-07 14:29:08
Программа кодирования : mkvmerge v12.0.0 ('Trust / Lust') 64bit
Библиотека кодирования : libebml v1.3.4 + libmatroska v1.4.5

Видео
Идентификатор : 1
Формат : AVC
Формат/Информация : Advanced Video Codec
Профиль формата :
Параметр CABAC формата : Да
Параметр ReFrames формата : 3 кадра
Идентификатор кодека : V_MPEG4/ISO/AVC
Продолжительность : 59 м. 27 с.
Битрейт : 5039 Кбит/сек
Ширина : 1916 пикселей
Высота : 1076 пикселей
Соотношение сторон : 16:9
Режим частоты кадров : Постоянный
Частота кадров : 23,976 (24000/1001) кадра/сек
Стандарт вещания : NTSC
Цветовое пространство : YUV
Субдискретизация насыщенности : 4:2:0
Битовая глубина : 8 бит
Тип развёртки : Прогрессивная
Бит/(Пиксели*Кадры) : 0.102
Размер потока : 2,09 Гбайт (87%)
Язык : English
Default : Да
Forced : Нет
Цветовой диапазон : Limited
Основные цвета : BT.709
Характеристики трансфера : BT.709
Коэффициенты матрицы : BT.709

Аудио #1
Идентификатор : 2
Формат : AC-3
Формат/Информация : Audio Coding 3
Расширение режима : CM (complete main)
Параметр Endianness формата : Big
Идентификатор кодека : A_AC3
Продолжительность : 59 м. 27 с.
Вид битрейта : Постоянный
Битрейт : 384 Кбит/сек
Каналы : 6 каналов
Расположение каналов : Front: L C R, Side: L R, LFE
Частота : 48,0 КГц
Частота кадров : 31,250 кадров/сек (1536 spf)
Метод сжатия : С потерями
Размер потока : 163 Мбайт (7%)
Заголовок : IDEAFILM
Язык : Russian
Default : Да
Forced : Нет

Аудио #2
Идентификатор : 3
Формат : AC-3
Формат/Информация : Audio Coding 3
Расширение режима : CM (complete main)
Параметр Endianness формата : Big
Идентификатор кодека : A_AC3
Продолжительность : 58 м. 54 с.
Вид битрейта : Постоянный
Битрейт : 384 Кбит/сек
Каналы : 6 каналов
Расположение каналов : Front: L C R, Side: L R, LFE
Частота : 48,0 КГц
Частота кадров : 31,250 кадров/сек (1536 spf)
Метод сжатия : С потерями
Задержка видео : 33 с. 0 мс.
Размер потока : 162 Мбайт (7%)
Язык : English
Default : Нет
Forced : Нет







   Похожие торренты   Торрент   Размер 
В этой теме нет новых непрочитанных сообщений. Снегопад, 1 сезон 1-5 серия из 10 / Snowfall [IdeaFilm] (Адиль Эль Арби, Билал Фалла, Джон Синглтон) [2017, драма, WEB-DL 1080p, Р]

4 | 6

10.01 ГБ

В этой теме нет новых непрочитанных сообщений. Снегопад, 1 сезон 1-7 серия из 10 / Snowfall [IdeaFilm] (Адиль Эль Арби, Билал Фалла, Джон Синглтон) [2017, драма, WEB-DL 1080p, Р]

3 | 7

13.59 ГБ

В этой теме нет новых непрочитанных сообщений. Снегопад, 1 сезон 1-3 серия из 10 / Snowfall [IdeaFilm] (Адиль Эль Арби, Билал Фалла, Джон Синглтон) [2017, драма, WEB-DL 1080p, Р]

4 | 6

6.4 ГБ

В этой теме нет новых непрочитанных сообщений. Снегопад, 1 сезон 1-4 серия из 10 / Snowfall [IdeaFilm] (Адиль Эль Арби, Билал Фалла, Джон Синглтон) [2017, драма, WEB-DL 1080p, Р]

14 | 8

8.26 ГБ

В этой теме нет новых непрочитанных сообщений. Снегопад, 1 сезон 1-6 серия из 10 / Snowfall [IdeaFilm] (Адиль Эль Арби, Билал Фалла, Джон Синглтон) [2017, драма, WEB-DLRip, Р]

4 | 12

3.88 ГБ

В этой теме нет новых непрочитанных сообщений. Снегопад, 1 сезон 1-4 серия из 10 / Snowfall [IdeaFilm] (Адиль Эль Арби, Билал Фалла, Джон Синглтон) [2017, драма, WEB-DL 720p, Р]

10 | 9

6.65 ГБ

В этой теме нет новых непрочитанных сообщений. Снегопад, 1 сезон 1-6 серия из 10 / Snowfall [IdeaFilm] (Адиль Эль Арби, Билал Фалла, Джон Синглтон) [2017, драма, WEB-DL 720p, Р]

4 | 5

9.6 ГБ




Вы не можете начинать темы
Вы не можете отвечать на сообщения
Вы не можете редактировать свои сообщения
Вы не можете удалять свои сообщения
Вы не можете добавлять вложения

Перейти:  
Для Мосгорсуда, Роскомнадзора и рекламодателей: mosgorsud-torrent[собачка]yandex.ru
 Вход
ppkBB3cker v.2 © 2008-2014 @ PPK
[ Time : 0.053s | 19 Queries | GZIP : Off ]

cron