img image001 image001 image001 image001 image001 image001 image001 image001 image001 image001 image001 image001 image001 image001 image001

Planets Sun Sun Sun
Статистика раздачи
Автор: Nickolas3434 | Размер: 10.29 ГБ | Добавлен: 12 авг 2017
Раздают: 18    Качают: 2
Скачать торрент
Скачать торрент
Описание торрента

СообщениеДобавлено: 12 авг 2017 

Охота на Унабомбера / Manhunt: Unabomber


Перевод: Профессиональный (многоголосый, закадровый) IdeaFilm
Субтитры: отсутствуют
Формат: WEBRip 1080p, MKV, H.264, AC3
Страна: США
Режиссер: Грег Яйтанс
Жанр: Драма, криминал
Всего серий: 8
Продолжительность: 3 х ~ 00:45:00
Год выпуска: 2017

В ролях: Пол Беттани, Джейн Линч, Сэм Уортингтон, Лорен Франдсен, Роуэн Бусед, Дизель, Грифф Ферст, Бонни Джонсон, Джон Мерикал, Майк Пневски

Описание: История противостояния офицера ФБР Джима Фицджеральда и опасного преступника Теодора Качински по прозвищу Унабомбер, рассылавшего по почте самодельные бомбы.



Видео: 1920x1080 (16:9), 23,976 fps, AVC (х264), , ~10.9 Mbps avg, 0.218 bit/pixel
Аудио #1 Rus: 48 kHz, AC3 Dolby Digital, 2/0 (L,R) ch, ~192 kbps
Аудио #2 Eng: 48 kHz, AC3 Dolby Digital, 2/0 (L,R) ch, ~256 kbps

Внимание, присутствует реклама!
Раздача ведется путем добавления новых серий.

Добавлена 3 серия.


Внимание! Раздача ведётся путём добавления новых серий; при каждом добавлении создаётся новый торрент. Чтобы начать докачку новой серии, пользователям необходимо сделать следующее:
(1) остановить скачивание,
(2) удалить старый торрент у себя из клиента (старые серии удалять не надо),
(3) скачать новый торрент и запустить его у себя в клиенте вместо старого, при этом указать клиенту путь в старую папку куда и должно происходить скачивание новых серий.

Ваш клиент при этом должен произвести хеширование (проверку) старой папки (если не производит сам - помогите ему сделать это), и будет докачивать только те серии которых у вас ещё нет. Старые серии при этом не удаляются, а продолжают раздаваться!

Eсли вы уже удалили старые серии, то предотвратить повторную закачку старых серий можно, отжав галочку в соответствующих местах при запуске нового торрента. По возможности, желательно не удалять старые серии как можно дольше, чтобы релизёр не столько продолжал раздавать старые серии, а смог сконцентрироваться на новых.



General
Unique ID : 190467108391892926953663388019174794059 (0x8F4AA178A759E8C49272F15D3D2DE34B)
Complete name : ...\Manhunt.Unabomber.S01E01.WEBRip.1080p.IdeaFilm.mkv
Format : Matroska
Format version : Version 4 / Version 2
File size : 3.42 GiB
Duration : 43 min 14 s
Overall bit rate : 11.3 Mb/s
Encoded date : UTC 2017-08-03 13:43:05
Writing application : mkvmerge v13.0.0 ('The Juggler') 64bit
Writing library : libebml v1.3.4 + libmatroska v1.4.5

Video
ID : 1
Format : AVC
Format/Info : Advanced Video Codec
Format profile :
Format settings, CABAC : Yes
Format settings, ReFrames : 3 frames
Codec ID : V_MPEG4/ISO/AVC
Duration : 43 min 14 s
Bit rate : 10.9 Mb/s
Width : 1 920 pixels
Height : 1 080 pixels
Display aspect ratio : 16:9
Frame rate mode : Constant
Frame rate : 23.976 (24000/1001) FPS
Standard : NTSC
Color space : YUV
Chroma subsampling : 4:2:0
Bit depth : 8 bits
Scan type : Progressive
Bits/(Pixel*Frame) : 0.218
Stream size : 3.28 GiB (96%)
Language : English
Default : Yes
Forced : No
Color range : Limited
Color primaries : BT.709
Transfer characteristics : BT.709
Matrix coefficients : BT.709

Audio #1
ID : 2
Format : AC-3
Format/Info : Audio Coding 3
Format settings, Endianness : Big
Codec ID : A_AC3
Duration : 43 min 14 s
Bit rate mode : Constant
Bit rate : 192 kb/s
Channel(s) : 2 channels
Channel positions : Front: L R
Sampling rate : 48.0 kHz
Frame rate : 31.250 FPS (1536 spf)
Bit depth : 16 bits
Compression mode : Lossy
Stream size : 59.4 MiB (2%)
Title : IDEAFILM
Language : Russian
Service kind : Complete Main
Default : Yes
Forced : No

Audio #2
ID : 3
Format : AC-3
Format/Info : Audio Coding 3
Codec ID : A_AC3
Duration : 42 min 41 s
Bit rate : 256 kb/s
Channel(s) : 2 channels
Sampling rate : 48.0 kHz
Frame rate : 31.250 FPS (1536 spf)
Compression mode : Lossy
Stream size : 78.2 MiB (2%)
Language : English
Default : No
Forced : No







   Похожие торренты   Торрент   Размер 
В этой теме нет новых непрочитанных сообщений. Охота на Унабомбера, 1 сезон 1-4 серии из 8 / Manhunt: Unabomber [IdeaFilm] (Грег Яйтанс) [2017, драма, криминал, WEBRip 1080p, Р]

3 | 0

13.71 ГБ

В этой теме нет новых непрочитанных сообщений. Охота на Унабомбера, 1 сезон 1-5 серии из 8 / Manhunt: Unabomber [IdeaFilm] (Грег Яйтанс) [2017, драма, криминал, WEBRip 1080p, Р]

2 | 0

17.15 ГБ

В этой теме нет новых непрочитанных сообщений. Охота на Унабомбера, 1 сезон 1-2 серии из 8 / Manhunt: Unabomber [IdeaFilm] (Грег Яйтанс) [2017, драма, криминал, WEBRip 1080p, Р]

6 | 0

6.85 ГБ

В этой теме нет новых непрочитанных сообщений. Охота на Унабомбера, 1 сезон 1-4 серии из 8 / Manhunt: Unabomber [IdeaFilm] (Грег Яйтанс) [2017, драма, криминал, WEBRip, Р]

1 | 2

2.4 ГБ

В этой теме нет новых непрочитанных сообщений. Охота на Унабомбера, 1 сезон 1-5 серии из 8 / Manhunt: Unabomber [IdeaFilm] (Грег Яйтанс) [2017, драма, криминал, WEBRip, Р]

8 | 7

3 ГБ

В этой теме нет новых непрочитанных сообщений. Охота на Унабомбера, 1 сезон 1-3 серии из 8 / Manhunt: Unabomber [IdeaFilm] (Грег Яйтанс) [2017, драма, криминал, WEBRip, Р]

21 | 0

1.8 ГБ

В этой теме нет новых непрочитанных сообщений. Охота на Унабомбера, 1 сезон 1-2 серии из 8 / Manhunt: Unabomber [IdeaFilm] (Грег Яйтанс) [2017, драма, криминал, WEBRip, Р]

8 | 2

1.2 ГБ




Вы не можете начинать темы
Вы не можете отвечать на сообщения
Вы не можете редактировать свои сообщения
Вы не можете удалять свои сообщения
Вы не можете добавлять вложения

Перейти:  
Для Мосгорсуда, Роскомнадзора и рекламодателей: mosgorsud-torrent[собачка]yandex.ru
 Вход
ppkBB3cker v.2 © 2008-2014 @ PPK
[ Time : 0.048s | 18 Queries | GZIP : Off ]

cron