img image001 image001 image001 image001 image001 image001 image001 image001 image001 image001 image001 image001 image001 image001 image001

Planets Sun Sun Sun
Статистика раздачи
Автор: Nickolas3434 | Размер: 1.8 ГБ | Добавлен: 12 авг 2017
Раздают: 29    Качают: 7
Скачать торрент
Скачать торрент
Описание торрента

СообщениеДобавлено: 12 авг 2017 

Охота на Унабомбера / Manhunt: Unabomber


Перевод: Профессиональный (многоголосый, закадровый) IdeaFilm
Субтитры: отсутствуют
Формат: WEBRip, AVI, XviD, AC3
Страна: США
Режиссер: Грег Яйтанс
Жанр: Драма, криминал
Всего серий: 8
Продолжительность: 3 х ~ 00:45:00
Год выпуска: 2017

В ролях: Пол Беттани, Джейн Линч, Сэм Уортингтон, Лорен Франдсен, Роуэн Бусед, Дизель, Грифф Ферст, Бонни Джонсон, Джон Мерикал, Майк Пневски

Описание: История противостояния офицера ФБР Джима Фицджеральда и опасного преступника Теодора Качински по прозвищу Унабомбер, рассылавшего по почте самодельные бомбы.



Видео: 720x400 (1.80:1), 23.976 fps, XviD MPEG-4 ~1793 kbps avg, 0.26 bit/pixel
Аудио #1 Rus: 48 kHz, AC3 Dolby Digital, 2/0 (L,R) ch, ~192 kbps

Внимание, присутствует реклама!
Раздача ведется путем добавления новых серий.

Добавлена 3 серия.


Внимание! Раздача ведётся путём добавления новых серий; при каждом добавлении создаётся новый торрент. Чтобы начать докачку новой серии, пользователям необходимо сделать следующее:
(1) остановить скачивание,
(2) удалить старый торрент у себя из клиента (старые серии удалять не надо),
(3) скачать новый торрент и запустить его у себя в клиенте вместо старого, при этом указать клиенту путь в старую папку куда и должно происходить скачивание новых серий.

Ваш клиент при этом должен произвести хеширование (проверку) старой папки (если не производит сам - помогите ему сделать это), и будет докачивать только те серии которых у вас ещё нет. Старые серии при этом не удаляются, а продолжают раздаваться!

Eсли вы уже удалили старые серии, то предотвратить повторную закачку старых серий можно, отжав галочку в соответствующих местах при запуске нового торрента. По возможности, желательно не удалять старые серии как можно дольше, чтобы релизёр не столько продолжал раздавать старые серии, а смог сконцентрироваться на новых.



General
Complete name : ...\Manhunt.Unabomber.S01E01.WEBRip.IdeaFilm.avi
Format : AVI
Format/Info : Audio Video Interleave
File size : 617 MiB
Duration : 43 min 15 s
Overall bit rate : 1 995 kb/s
Writing library : VirtualDub build 35576/release

Video
ID : 0
Format : MPEG-4 Visual
Format profile : Advanced Simple@L5
Format settings, BVOP : 2
Format settings, QPel : No
Format settings, GMC : No warppoints
Format settings, Matrix : Default (H.263)
Muxing mode : Packed bitstream
Codec ID : XVID
Codec ID/Hint : XviD
Duration : 43 min 15 s
Bit rate : 1 793 kb/s
Width : 720 pixels
Height : 400 pixels
Display aspect ratio : 16:9
Frame rate : 23.976 (24000/1001) FPS
Color space : YUV
Chroma subsampling : 4:2:0
Bit depth : 8 bits
Scan type : Progressive
Compression mode : Lossy
Bits/(Pixel*Frame) : 0.260
Stream size : 555 MiB (90%)
Writing library : XviD 73

Audio
ID : 1
Format : AC-3
Format/Info : Audio Coding 3
Format settings, Endianness : Big
Codec ID : 2000
Duration : 43 min 14 s
Bit rate mode : Constant
Bit rate : 192 kb/s
Channel(s) : 2 channels
Channel positions : Front: L R
Sampling rate : 48.0 kHz
Frame rate : 31.250 FPS (1536 spf)
Bit depth : 16 bits
Compression mode : Lossy
Stream size : 59.4 MiB (10%)
Alignment : Aligned on interleaves
Interleave, duration : 42 ms (1.00 video frame)
Interleave, preload duratio : 512 ms
Service kind : Complete Main





   Похожие торренты   Торрент   Размер 
В этой теме нет новых непрочитанных сообщений. Охота на Унабомбера, 1 сезон 1-2 серии из 8 / Manhunt: Unabomber [IdeaFilm] (Грег Яйтанс) [2017, драма, криминал, WEBRip, Р]

31 | 4

1.2 ГБ

В этой теме нет новых непрочитанных сообщений. Охота на Унабомбера, 1 сезон 1-2 серии из 8 / Manhunt: Unabomber [IdeaFilm] (Грег Яйтанс) [2017, драма, криминал, WEBRip 1080p, Р]

12 | 0

6.85 ГБ

В этой теме нет новых непрочитанных сообщений. Охота на Унабомбера, 1 сезон 1-2 серии из 8 / Manhunt: Unabomber [IdeaFilm] (Грег Яйтанс) [2017, драма, криминал, WEBRip 720p, Р]

18 | 2

4.45 ГБ

В этой теме нет новых непрочитанных сообщений. Охота на Унабомбера, 1 сезон 1-3 серии из 8 / Manhunt: Unabomber [IdeaFilm] (Грег Яйтанс) [2017, драма, криминал, WEBRip 720p, Р]

6 | 6

6.69 ГБ

В этой теме нет новых непрочитанных сообщений. Охота на Унабомбера, 1 сезон 1-3 серии из 8 / Manhunt: Unabomber [IdeaFilm] (Грег Яйтанс) [2017, драма, криминал, WEBRip 1080p, Р]

27 | 3

10.29 ГБ

В этой теме нет новых непрочитанных сообщений. Рэй Донован, 5 сезон 1-2 серии из 12 / Ray Donovan [IdeaFilm] (Майкл Аппендаль, Джон Дал) [2017, криминал, драма, WEBRip, Р]

33 | 36

1.61 ГБ

В этой теме нет новых непрочитанных сообщений. Рэй Донован, 5 сезон 1-2 серии из 12 / Ray Donovan [IdeaFilm] (Майкл Аппендаль, Джон Дал) [2017, криминал, драма, WEBRip 720p, Р]

0 | 0

5.92 ГБ




Вы не можете начинать темы
Вы не можете отвечать на сообщения
Вы не можете редактировать свои сообщения
Вы не можете удалять свои сообщения
Вы не можете добавлять вложения

Перейти:  
Для Мосгорсуда, Роскомнадзора и рекламодателей: mosgorsud-torrent[собачка]yandex.ru
 Вход
ppkBB3cker v.2 © 2008-2014 @ PPK
[ Time : 0.063s | 18 Queries | GZIP : Off ]

Торрент трекер RUTOR.IN, Не можете зайти на rutor.org? Какой новый адрес рутор? Какое зеркало рутор? Не работает rutor.org и зеркала? Тогда наш торрент специально для вас. Rutor.in неофициальное зеркало rutor. В случае если у Вас заблокирован rutor или вдруг Вы не можете на него зайти, то Вы без труда сможете скачать бесплатно и без рекламы последние новинки кино, игр, сериалов и прочего у нас, на Rutor.in. Не нужно использовать прокси, чтобы зайти на рутор, достаточно воспользоваться нашим ресурсом. Все новые фильмы, игры, сериалы, книги и музыка за 2013 и 2014 годы через торрент бесплатно. Скачивайте фильмы в хорошем качестве, игры для пк, xbox, playstation без регистрации. У нас вы найдете новые Зарубежные сериалы и Русские сериалы 2013, 2014, 2015 годов. Оставайтесь с нами, качайте любимые фильмы, игры, сериалы, книги и музыку.
cron