img image001 image001 image001 image001 image001 image001 image001 image001 image001 image001 image001 image001 image001 image001 image001

Planets Sun Sun Sun
Статистика раздачи
Автор: Nickolas3434 | Размер: 12.88 ГБ | Добавлен: 12 авг 2017
Раздают: 4    Качают: 3
Скачать торрент
Скачать торрент
Описание торрента

СообщениеДобавлено: 12 авг 2017 

Кровавая езда / Blood Drive


Перевод: Профессиональный (многоголосый, закадровый) IdeaFilm
Субтитры: отсутствуют
Формат: WEB-DLRip 720p, MKV, H.264, AC3
Страна: США
Режиссер: Дэвид Стрейтон, Мира Менон, Лин Оэдин, Роэл Рейне, Джеймс Родэй
Жанр: Драма, ужасы, фантастика
Всего серий: 13
Продолжительность: 9 х ~ 00:45:00
Год выпуска: 2017

В ролях: Алан Ричсон, Кристина Очоа, Марама Корлетт, Колин Каннингэм, Даррен Кент, Эндрю Моргадо, Шон Майкл, Карел Нель, Эйдан Уайток

Описание: Сериал SyFy "Кровавые Гонки" выдержан в стилистике Роберта Родригеса вроде "Планеты страха". События фантастического сериала происходят в постапокалиптическом будущем 1999 года в Лос-Анджелесе, а в центре событий - коп Артур Бэйли, который вынужден присоединиться к команде "Кровавых гонок", подпольному шоу в котором автомобили разъезжают на человеческой крови. Его напарница - очаровательная и опасная Грейс Д'Ардженто со своими секретами. Им вместе придется преодолеть множество препятствий, или самим стать топливом для гоночных автомобилей.



Видео: 1280x720 (16:9), 23,976 fps, AVC (х264), , ~3950 kbps avg, 0.179 bit/pixel
Аудио #1 Rus: 48 kHz, AC3 Dolby Digital, 3/2 (L,C,R,l,r) + LFE ch, ~384 kbps
Аудио #2 Eng: 48 kHz, AC3 Dolby Digital, 3/2 (L,C,R,l,r) + LFE ch, ~384 kbps

Внимание, присутствует реклама!
Раздача ведется путем добавления новых серий.

Добавлена 9 серия.


Внимание! Раздача ведётся путём добавления новых серий; при каждом добавлении создаётся новый торрент. Чтобы начать докачку новой серии, пользователям необходимо сделать следующее:
(1) остановить скачивание,
(2) удалить старый торрент у себя из клиента (старые серии удалять не надо),
(3) скачать новый торрент и запустить его у себя в клиенте вместо старого, при этом указать клиенту путь в старую папку куда и должно происходить скачивание новых серий.

Ваш клиент при этом должен произвести хеширование (проверку) старой папки (если не производит сам - помогите ему сделать это), и будет докачивать только те серии которых у вас ещё нет. Старые серии при этом не удаляются, а продолжают раздаваться!

Eсли вы уже удалили старые серии, то предотвратить повторную закачку старых серий можно, отжав галочку в соответствующих местах при запуске нового торрента. По возможности, желательно не удалять старые серии как можно дольше, чтобы релизёр не столько продолжал раздавать старые серии, а смог сконцентрироваться на новых.



General
Unique ID : 192754243616867321200792867504155631077 (0x91031DF1AD3BD5DF92BA566782E59DE5)
Complete name : ...\Blood.Drive.S01E01.WEB-DLRip.720p.IdeaFilm.mkv
Format : Matroska
Format version : Version 4 / Version 2
File size : 1.49 GiB
Duration : 45 min 6 s
Overall bit rate : 4 716 kb/s
Encoded date : UTC 2017-06-16 11:57:52
Writing application : mkvmerge v12.0.0 ('Trust / Lust') 64bit
Writing library : libebml v1.3.4 + libmatroska v1.4.5

Video
ID : 1
Format : AVC
Format/Info : Advanced Video Codec
Format profile :
Format settings, CABAC : Yes
Format settings, ReFrames : 3 frames
Codec ID : V_MPEG4/ISO/AVC
Duration : 45 min 6 s
Bit rate : 3 950 kb/s
Width : 1 280 pixels
Height : 720 pixels
Display aspect ratio : 16:9
Frame rate mode : Constant
Frame rate : 23.976 (24000/1001) FPS
Standard : NTSC
Color space : YUV
Chroma subsampling : 4:2:0
Bit depth : 8 bits
Scan type : Progressive
Bits/(Pixel*Frame) : 0.179
Stream size : 1.24 GiB (84%)
Language : English
Default : Yes
Forced : No
Color range : Limited
Color primaries : BT.709
Transfer characteristics : BT.709
Matrix coefficients : BT.709

Audio #1
ID : 2
Format : AC-3
Format/Info : Audio Coding 3
Format settings, Endianness : Big
Codec ID : A_AC3
Duration : 45 min 6 s
Bit rate mode : Constant
Bit rate : 384 kb/s
Channel(s) : 6 channels
Channel positions : Front: L C R, Side: L R, LFE
Sampling rate : 48.0 kHz
Frame rate : 31.250 FPS (1536 spf)
Bit depth : 16 bits
Compression mode : Lossy
Stream size : 124 MiB (8%)
Title : IDEAFILM
Language : Russian
Service kind : Complete Main
Default : Yes
Forced : No

Audio #2
ID : 3
Format : AC-3
Format/Info : Audio Coding 3
Codec ID : A_AC3
Duration : 44 min 33 s
Bit rate : 384 kb/s
Channel(s) : 6 channels
Sampling rate : 48.0 kHz
Frame rate : 31.250 FPS (1536 spf)
Compression mode : Lossy
Stream size : 122 MiB (8%)
Language : English
Default : No
Forced : No







   Похожие торренты   Торрент   Размер 
В этой теме нет новых непрочитанных сообщений. Кровавая езда, 1 сезон 1-8 серии из 13 / Blood Drive [IdeaFilm] (Дэвид Стрейтон, Мира Менон, Лин Оэдин) [2017, драма, ужасы, фантастика, WEB-DLRip 720p, Р]

4 | 6

11.48 ГБ

В этой теме нет новых непрочитанных сообщений. Кровавая езда, 1 сезон 1-7 серии из 13 / Blood Drive [IdeaFilm] (Дэвид Стрейтон, Мира Менон, Лин Оэдин) [2017, драма, ужасы, фантастика, WEB-DLRip 720p, Р]

7 | 4

10.05 ГБ

В этой теме нет новых непрочитанных сообщений. Кровавая езда, 1 сезон 1-6 серии из 13 / Blood Drive [IdeaFilm] (Дэвид Стрейтон, Мира Менон, Лин Оэдин) [2017, драма, ужасы, фантастика, WEB-DLRip 720p, Р]

6 | 1

8.62 ГБ

В этой теме нет новых непрочитанных сообщений. Кровавая езда, 1 сезон 1-3 серии из 13 / Blood Drive [IdeaFilm] (Дэвид Стрейтон, Мира Менон, Лин Оэдин) [2017, драма, ужасы, фантастика, WEB-DLRip 720p, Р]

22 | 19

4.36 ГБ

В этой теме нет новых непрочитанных сообщений. Кровавая езда, 1 сезон 1-2 серии из 13 / Blood Drive [IdeaFilm] (Дэвид Стрейтон, Мира Менон, Лин Оэдин) [2017, драма, ужасы, фантастика, WEB-DLRip 720p, Р]

15 | 8

2.91 ГБ

В этой теме нет новых непрочитанных сообщений. Кровавая езда, 1 сезон 1-2 серии из 13 / Blood Drive [IdeaFilm] (Дэвид Стрейтон, Мира Менон, Лин Оэдин) [2017, драма, ужасы, фантастика, WEB-DLRip, Р]

2 | 2

1.35 ГБ

В этой теме нет новых непрочитанных сообщений. Кровавая езда, 1 сезон 1-8 серии из 13 / Blood Drive [IdeaFilm] (Дэвид Стрейтон, Мира Менон, Лин Оэдин) [2017, драма, ужасы, фантастика, WEB-DLRip, Р]

10 | 19

5.32 ГБ




Вы не можете начинать темы
Вы не можете отвечать на сообщения
Вы не можете редактировать свои сообщения
Вы не можете удалять свои сообщения
Вы не можете добавлять вложения

Перейти:  
Для Мосгорсуда, Роскомнадзора и рекламодателей: mosgorsud-torrent[собачка]yandex.ru
 Вход
ppkBB3cker v.2 © 2008-2014 @ PPK
[ Time : 0.041s | 19 Queries | GZIP : Off ]

Торрент трекер RUTOR.IN, Не можете зайти на rutor.org? Какой новый адрес рутор? Какое зеркало рутор? Не работает rutor.org и зеркала? Тогда наш торрент специально для вас. Rutor.in неофициальное зеркало rutor. В случае если у Вас заблокирован rutor или вдруг Вы не можете на него зайти, то Вы без труда сможете скачать бесплатно и без рекламы последние новинки кино, игр, сериалов и прочего у нас, на Rutor.in. Не нужно использовать прокси, чтобы зайти на рутор, достаточно воспользоваться нашим ресурсом. Все новые фильмы, игры, сериалы, книги и музыка за 2013 и 2014 годы через торрент бесплатно. Скачивайте фильмы в хорошем качестве, игры для пк, xbox, playstation без регистрации. У нас вы найдете новые Зарубежные сериалы и Русские сериалы 2013, 2014, 2015 годов. Оставайтесь с нами, качайте любимые фильмы, игры, сериалы, книги и музыку.
cron