img image001 image001 image001 image001 image001 image001 image001 image001 image001 image001 image001 image001 image001 image001 image001

Planets Sun Sun Sun
Статистика раздачи
Автор: Nickolas3434 | Размер: 5.96 ГБ | Добавлен: 12 авг 2017
Раздают: 9    Качают: 2
Скачать торрент
Скачать торрент
Описание торрента

СообщениеДобавлено: 12 авг 2017 

Кровавая езда / Blood Drive


Перевод: Профессиональный (многоголосый, закадровый) IdeaFilm
Субтитры: отсутствуют
Формат: WEB-DLRip, AVI, XviD, AC3
Страна: США
Режиссер: Дэвид Стрейтон, Мира Менон, Лин Оэдин, Роэл Рейне, Джеймс Родэй
Жанр: Драма, ужасы, фантастика
Всего серий: 13
Продолжительность: 9 х ~ 00:45:00
Год выпуска: 2017

В ролях: Алан Ричсон, Кристина Очоа, Марама Корлетт, Колин Каннингэм, Даррен Кент, Эндрю Моргадо, Шон Майкл, Карел Нель, Эйдан Уайток

Описание: Сериал SyFy "Кровавые Гонки" выдержан в стилистике Роберта Родригеса вроде "Планеты страха". События фантастического сериала происходят в постапокалиптическом будущем 1999 года в Лос-Анджелесе, а в центре событий - коп Артур Бэйли, который вынужден присоединиться к команде "Кровавых гонок", подпольному шоу в котором автомобили разъезжают на человеческой крови. Его напарница - очаровательная и опасная Грейс Д'Ардженто со своими секретами. Им вместе придется преодолеть множество препятствий, или самим стать топливом для гоночных автомобилей.



Видео: 720x400 (1.80:1), 23.976 fps, XviD MPEG-4 ~1788 kbps avg, 0.26 bit/pixel
Аудио #1 Rus: 48 kHz, AC3 Dolby Digital, 3/2 (L,C,R,l,r) + LFE ch, ~384 kbps

Внимание, присутствует реклама!
Раздача ведется путем добавления новых серий.

Добавлена 9 серия.


Внимание! Раздача ведётся путём добавления новых серий; при каждом добавлении создаётся новый торрент. Чтобы начать докачку новой серии, пользователям необходимо сделать следующее:
(1) остановить скачивание,
(2) удалить старый торрент у себя из клиента (старые серии удалять не надо),
(3) скачать новый торрент и запустить его у себя в клиенте вместо старого, при этом указать клиенту путь в старую папку куда и должно происходить скачивание новых серий.

Ваш клиент при этом должен произвести хеширование (проверку) старой папки (если не производит сам - помогите ему сделать это), и будет докачивать только те серии которых у вас ещё нет. Старые серии при этом не удаляются, а продолжают раздаваться!

Eсли вы уже удалили старые серии, то предотвратить повторную закачку старых серий можно, отжав галочку в соответствующих местах при запуске нового торрента. По возможности, желательно не удалять старые серии как можно дольше, чтобы релизёр не столько продолжал раздавать старые серии, а смог сконцентрироваться на новых.



General
Complete name : ...\Blood.Drive.S01E01.WEB-DLRip.IdeaFilm.avi
Format : AVI
Format/Info : Audio Video Interleave
File size : 704 MiB
Duration : 45 min 6 s
Overall bit rate : 2 182 kb/s
Writing library : VirtualDub build 35576/release

Video
ID : 0
Format : MPEG-4 Visual
Format profile : Advanced Simple@L5
Format settings, BVOP : 2
Format settings, QPel : No
Format settings, GMC : No warppoints
Format settings, Matrix : Default (H.263)
Muxing mode : Packed bitstream
Codec ID : XVID
Codec ID/Hint : XviD
Duration : 45 min 6 s
Bit rate : 1 788 kb/s
Width : 720 pixels
Height : 400 pixels
Display aspect ratio : 16:9
Frame rate : 23.976 (24000/1001) FPS
Color space : YUV
Chroma subsampling : 4:2:0
Bit depth : 8 bits
Scan type : Progressive
Compression mode : Lossy
Bits/(Pixel*Frame) : 0.259
Stream size : 577 MiB (82%)
Writing library : XviD 73

Audio
ID : 1
Format : AC-3
Format/Info : Audio Coding 3
Format settings, Endianness : Big
Codec ID : 2000
Duration : 45 min 6 s
Bit rate mode : Constant
Bit rate : 384 kb/s
Channel(s) : 6 channels
Channel positions : Front: L C R, Side: L R, LFE
Sampling rate : 48.0 kHz
Frame rate : 31.250 FPS (1536 spf)
Bit depth : 16 bits
Compression mode : Lossy
Stream size : 124 MiB (18%)
Alignment : Aligned on interleaves
Interleave, duration : 42 ms (1.00 video frame)
Interleave, preload duratio : 512 ms
Service kind : Complete Main







   Похожие торренты   Торрент   Размер 
В этой теме нет новых непрочитанных сообщений. Кровавая езда, 1 сезон 1-10 серии из 13 / Blood Drive [IdeaFilm] (Дэвид Стрейтон, Мира Менон, Лин Оэдин) [2017, драма, ужасы, фантастика, WEB-DLRip, Р]

7 | 2

6.63 ГБ

В этой теме нет новых непрочитанных сообщений. Кровавая езда, 1 сезон 1-12 серии из 13 / Blood Drive [IdeaFilm] (Дэвид Стрейтон, Мира Менон, Лин Оэдин) [2017, драма, ужасы, фантастика, WEB-DLRip, Р]

2 | 2

7.95 ГБ

В этой теме нет новых непрочитанных сообщений. Кровавая езда, 1 сезон 1-3 серии из 13 / Blood Drive [IdeaFilm] (Дэвид Стрейтон, Мира Менон, Лин Оэдин) [2017, драма, ужасы, фантастика, WEB-DLRip, Р]

34 | 26

2.02 ГБ

В этой теме нет новых непрочитанных сообщений. Кровавая езда, 1 сезон 1-8 серии из 13 / Blood Drive [IdeaFilm] (Дэвид Стрейтон, Мира Менон, Лин Оэдин) [2017, драма, ужасы, фантастика, WEB-DLRip, Р]

10 | 19

5.32 ГБ

В этой теме нет новых непрочитанных сообщений. Кровавая езда, 1 сезон 1-2 серии из 13 / Blood Drive [IdeaFilm] (Дэвид Стрейтон, Мира Менон, Лин Оэдин) [2017, драма, ужасы, фантастика, WEB-DLRip, Р]

3 | 2

1.35 ГБ

В этой теме нет новых непрочитанных сообщений. Кровавая езда, 1 сезон 1-6 серии из 13 / Blood Drive [IdeaFilm] (Дэвид Стрейтон, Мира Менон, Лин Оэдин) [2017, драма, ужасы, фантастика, WEB-DLRip, Р]

3 | 8

3.99 ГБ

В этой теме нет новых непрочитанных сообщений. Кровавая езда, 1 сезон 1-7 серии из 13 / Blood Drive [IdeaFilm] (Дэвид Стрейтон, Мира Менон, Лин Оэдин) [2017, драма, ужасы, фантастика, WEB-DLRip, Р]

4 | 22

4.65 ГБ




Вы не можете начинать темы
Вы не можете отвечать на сообщения
Вы не можете редактировать свои сообщения
Вы не можете удалять свои сообщения
Вы не можете добавлять вложения

Перейти:  
Для Мосгорсуда, Роскомнадзора и рекламодателей: mosgorsud-torrent[собачка]yandex.ru
cron
 Вход
ppkBB3cker v.2 © 2008-2014 @ PPK
[ Time : 0.043s | 17 Queries | GZIP : Off ]

cron